  0
SECTION
  2
HEADER
  9
$ACADVER
  1
AC1009
  9
$DWGCODEPAGE
  3
ansi_1252
  9
$INSBASE
 10
0.0
 20
0.0
 30
0.0
  9
$EXTMIN
 10
0.0
 20
0.0
 30
0.0
  9
$EXTMAX
 10
22.0
 20
17.0
 30
0.0
  9
$LIMMIN
 10
0.0
 20
0.0
  9
$LIMMAX
 10
22.0
 20
17.0
  9
$ORTHOMODE
 70
     0
  9
$REGENMODE
 70
     1
  9
$FILLMODE
 70
     1
  9
$QTEXTMODE
 70
     0
  9
$MIRRTEXT
 70
     1
  9
$DRAGMODE
 70
     2
  9
$LTSCALE
 40
1.0
  9
$OSMODE
 70
    37
  9
$ATTMODE
 70
     1
  9
$TEXTSIZE
 40
0.2755905512
  9
$TRACEWID
 40
0.05
  9
$TEXTSTYLE
  7
STANDARD
  9
$CLAYER
  8
0
  9
$CELTYPE
  6
BYLAYER
  9
$CECOLOR
 62
   256
  9
$DIMSCALE
 40
1.0
  9
$DIMASZ
 40
0.4724409449
  9
$DIMEXO
 40
0.0787401575
  9
$DIMDLI
 40
0.38
  9
$DIMRND
 40
0.0
  9
$DIMDLE
 40
0.0
  9
$DIMEXE
 40
0.0787401575
  9
$DIMTP
 40
0.0
  9
$DIMTM
 40
0.0
  9
$DIMTXT
 40
0.2755905512
  9
$DIMCEN
 40
0.09
  9
$DIMTSZ
 40
0.0
  9
$DIMTOL
 70
     0
  9
$DIMLIM
 70
     0
  9
$DIMTIH
 70
     1
  9
$DIMTOH
 70
     1
  9
$DIMSE1
 70
     0
  9
$DIMSE2
 70
     0
  9
$DIMTAD
 70
     1
  9
$DIMZIN
 70
     0
  9
$DIMBLK
  1

  9
$DIMASO
 70
     1
  9
$DIMSHO
 70
     1
  9
$DIMPOST
  1

  9
$DIMAPOST
  1

  9
$DIMALT
 70
     0
  9
$DIMALTD
 70
     2
  9
$DIMALTF
 40
25.4
  9
$DIMLFAC
 40
1.0
  9
$DIMTOFL
 70
     0
  9
$DIMTVP
 40
0.0
  9
$DIMTIX
 70
     0
  9
$DIMSOXD
 70
     0
  9
$DIMSAH
 70
     0
  9
$DIMBLK1
  1

  9
$DIMBLK2
  1

  9
$DIMSTYLE
  2
STANDARD
  9
$DIMCLRD
 70
     0
  9
$DIMCLRE
 70
     0
  9
$DIMCLRT
 70
     0
  9
$DIMTFAC
 40
1.0
  9
$DIMGAP
 40
0.12
  9
$LUNITS
 70
     2
  9
$LUPREC
 70
     2
  9
$SKETCHINC
 40
0.1
  9
$FILLETRAD
 40
0.5
  9
$AUNITS
 70
     0
  9
$AUPREC
 70
     0
  9
$MENU
  1
.
  9
$ELEVATION
 40
0.0
  9
$PELEVATION
 40
0.0
  9
$THICKNESS
 40
0.0
  9
$LIMCHECK
 70
     0
  9
$CHAMFERA
 40
0.5
  9
$CHAMFERB
 40
0.5
  9
$SKPOLY
 70
     0
  9
$TDCREATE
 40
2454944.534601412
  9
$TDUPDATE
 40
2454944.534601423
  9
$TDINDWG
 40
0.0000000116
  9
$TDUSRTIMER
 40
0.0000000116
  9
$USRTIMER
 70
     1
  9
$ANGBASE
 50
0.0
  9
$ANGDIR
 70
     0
  9
$PDMODE
 70
     0
  9
$PDSIZE
 40
-1.0
  9
$PLINEWID
 40
0.0
  9
$COORDS
 70
     1
  9
$SPLFRAME
 70
     0
  9
$SPLINETYPE
 70
     6
  9
$SPLINESEGS
 70
     8
  9
$ATTDIA
 70
     0
  9
$ATTREQ
 70
     1
  9
$HANDLING
 70
     1
  9
$HANDSEED
  5
901
  9
$SURFTAB1
 70
     6
  9
$SURFTAB2
 70
     6
  9
$SURFTYPE
 70
     6
  9
$SURFU
 70
     6
  9
$SURFV
 70
     6
  9
$UCSNAME
  2

  9
$UCSORG
 10
0.0
 20
0.0
 30
0.0
  9
$UCSXDIR
 10
1.0
 20
0.0
 30
0.0
  9
$UCSYDIR
 10
0.0
 20
1.0
 30
0.0
  9
$PUCSNAME
  2

  9
$PUCSORG
 10
0.0
 20
0.0
 30
0.0
  9
$PUCSXDIR
 10
1.0
 20
0.0
 30
0.0
  9
$PUCSYDIR
 10
0.0
 20
1.0
 30
0.0
  9
$USERI1
 70
     0
  9
$USERI2
 70
     0
  9
$USERI3
 70
     0
  9
$USERI4
 70
     0
  9
$USERI5
 70
     0
  9
$USERR1
 40
0.0
  9
$USERR2
 40
0.0
  9
$USERR3
 40
0.0
  9
$USERR4
 40
0.0
  9
$USERR5
 40
0.0
  9
$WORLDVIEW
 70
     1
  9
$SHADEDGE
 70
     3
  9
$SHADEDIF
 70
    70
  9
$TILEMODE
 70
     1
  9
$MAXACTVP
 70
    64
  9
$PLIMCHECK
 70
     0
  9
$PEXTMIN
 10
1.0000000000E+20
 20
1.0000000000E+20
 30
1.0000000000E+20
  9
$PEXTMAX
 10
-1.0000000000E+20
 20
-1.0000000000E+20
 30
-1.0000000000E+20
  9
$PLIMMIN
 10
0.0
 20
0.0
  9
$PLIMMAX
 10
12.0
 20
9.0
  9
$UNITMODE
 70
     0
  9
$VISRETAIN
 70
     1
  9
$PLINEGEN
 70
     0
  9
$PSLTSCALE
 70
     1
  0
ENDSEC
  0
SECTION
  2
TABLES
  0
TABLE
  2
VPORT
 70
     1
  0
VPORT
  2
*ACTIVE
 70
     0
 10
0.0
 20
0.0
 11
1.0
 21
1.0
 12
11.0
 22
8.5
 13
0.0
 23
0.0
 14
0.5
 24
0.5
 15
0.5
 25
0.5
 16
0.0
 26
0.0
 36
1.0
 17
0.0
 27
0.0
 37
0.0
 40
17.0
 41
1.2941176471
 42
50.0
 43
0.0
 44
0.0
 50
0.0
 51
0.0
 71
     0
 72
  2000
 73
     1
 74
     3
 75
     0
 76
     0
 77
     0
 78
     0
  0
ENDTAB
  0
TABLE
  2
LTYPE
 70
     6
  0
LTYPE
  2
CONTINUOUS
 70
     0
  3
Solid line
 72
    65
 73
     0
 40
0.0
  0
LTYPE
  2
HIDDEN
 70
     0
  3
Hidden __ __ __ __ __ __ __ __ __ __ __ __ __ __
 72
    65
 73
     2
 40
0.075
 49
0.05
 49
-0.025
  0
LTYPE
  2
PHANTOM
 70
     0
  3
Phantom ______  __  __  ______  __  __  ______
 72
    65
 73
     6
 40
0.5
 49
0.25
 49
-0.05
 49
0.05
 49
-0.05
 49
0.05
 49
-0.05
  0
LTYPE
  2
CENTER
 70
     0
  3
Center ____ _ ____ _ ____ _ ____ _ ____ _ ____
 72
    65
 73
     4
 40
0.4
 49
0.25
 49
-0.05
 49
0.05
 49
-0.05
  0
LTYPE
  2
CENTERX2
 70
     0
  3
Center (2x) ________  __  ________  __  _____
 72
    65
 73
     4
 40
0.8
 49
0.5
 49
-0.1
 49
0.1
 49
-0.1
  0
LTYPE
  2
DOT2
 70
     0
  3
Dot (.5x) ........................................
 72
    65
 73
     2
 40
0.025
 49
0.0
 49
-0.025
  0
ENDTAB
  0
TABLE
  2
LAYER
 70
     1
  0
LAYER
  2
0
 70
     0
 62
     7
  6
CONTINUOUS
  0
ENDTAB
  0
TABLE
  2
STYLE
 70
     1
  0
STYLE
  2
STANDARD
 70
     0
 40
0.0
 41
1.0
 50
0.0
 71
     0
 42
0.2
  3
txt
  4

  0
ENDTAB
  0
TABLE
  2
VIEW
 70
     0
  0
ENDTAB
  0
TABLE
  2
UCS
 70
     0
  0
ENDTAB
  0
TABLE
  2
APPID
 70
     1
  0
APPID
  2
ACAD
 70
     0
  0
ENDTAB
  0
TABLE
  2
DIMSTYLE
 70
     8
  0
DIMSTYLE
  2
STANDARD
 70
     0
  3

  4

  5

  6

  7

 40
1.0
 41
0.18
 42
0.0625
 43
0.38
 44
0.18
 45
0.0
 46
0.0
 47
0.0
 48
0.0
140
0.18
141
0.09
142
0.0
143
25.4
144
1.0
145
0.0
146
1.0
147
0.09
 71
     0
 72
     0
 73
     1
 74
     1
 75
     0
 76
     0
 77
     0
 78
     0
170
     0
171
     2
172
     0
173
     0
174
     0
175
     0
176
     0
177
     0
178
     0
  0
DIMSTYLE
  2
SLDDIMSTYLE0
 70
     0
  3

  4

  5

  6
CLOSED
  7
CLOSED
 40
1.0
 41
0.4724409449
 42
0.0625
 43
0.38
 44
0.0
 45
0.000000001
 46
0.0
 47
0.0
 48
0.0
140
0.2755905512
141
0.09
142
0.0
143
25.4
144
1.0
145
0.0
146
1.0
147
0.0688976378
 71
     0
 72
     0
 73
     1
 74
     1
 75
     0
 76
     0
 77
     0
 78
    12
170
     0
171
     2
172
     0
173
     1
174
     0
175
     0
176
     0
177
     0
178
     0
  0
DIMSTYLE
  2
SLDDIMSTYLE1
 70
     0
  3

  4

  5

  6
CLOSED
  7
CLOSED
 40
1.0
 41
0.4724409449
 42
0.0625
 43
0.38
 44
0.0
 45
0.000000001
 46
0.0
 47
0.0
 48
0.0
140
0.2755905512
141
0.09
142
0.0
143
25.4
144
1.0
145
0.0
146
1.0
147
0.0688976378
 71
     0
 72
     0
 73
     0
 74
     1
 75
     0
 76
     0
 77
     1
 78
    12
170
     0
171
     2
172
     0
173
     1
174
     0
175
     0
176
     0
177
     0
178
     0
  0
DIMSTYLE
  2
SLDDIMSTYLE2
 70
     0
  3

  4

  5

  6
CLOSED
  7
CLOSED
 40
1.0
 41
0.4724409449
 42
0.0625
 43
0.38
 44
0.0
 45
0.000000001
 46
0.0
 47
0.0
 48
0.0
140
0.2755905512
141
0.09
142
0.0
143
25.4
144
1.0
145
0.0
146
1.0
147
0.0688976378
 71
     0
 72
     0
 73
     0
 74
     1
 75
     0
 76
     0
 77
     1
 78
    12
170
     0
171
     2
172
     0
173
     1
174
     0
175
     0
176
     0
177
     0
178
     0
  0
DIMSTYLE
  2
SLDDIMSTYLE3
 70
     0
  3

  4

  5

  6
CLOSED
  7
CLOSED
 40
1.0
 41
0.4724409449
 42
0.0625
 43
0.38
 44
0.0
 45
0.000000001
 46
0.0
 47
0.0
 48
0.0
140
0.2755905512
141
0.09
142
0.0
143
25.4
144
1.0
145
0.0
146
1.0
147
0.0688976378
 71
     0
 72
     0
 73
     0
 74
     1
 75
     0
 76
     0
 77
     1
 78
    12
170
     0
171
     2
172
     1
173
     1
174
     0
175
     0
176
     0
177
     0
178
     0
  0
DIMSTYLE
  2
SLDDIMSTYLE4
 70
     0
  3

  4

  5

  6
CLOSED
  7
CLOSED
 40
1.0
 41
0.4724409449
 42
0.0625
 43
0.38
 44
0.0
 45
0.000000001
 46
0.0
 47
0.0
 48
0.0
140
0.2755905512
141
0.09
142
0.0
143
25.4
144
1.0
145
0.0
146
1.0
147
0.0688976378
 71
     0
 72
     0
 73
     1
 74
     1
 75
     0
 76
     0
 77
     0
 78
    12
170
     0
171
     2
172
     0
173
     1
174
     0
175
     0
176
     0
177
     0
178
     0
  0
DIMSTYLE
  2
SLDDIMSTYLE5
 70
     0
  3

  4

  5

  6
CLOSED
  7
CLOSED
 40
1.0
 41
0.4724409449
 42
0.0625
 43
0.38
 44
0.0
 45
0.000000001
 46
0.0
 47
0.0
 48
0.0
140
0.2755905512
141
0.09
142
0.0
143
25.4
144
1.0
145
0.0
146
1.0
147
0.0688976378
 71
     0
 72
     0
 73
     1
 74
     1
 75
     0
 76
     0
 77
     0
 78
     4
170
     0
171
     2
172
     0
173
     1
174
     0
175
     0
176
     0
177
     0
178
     0
  0
DIMSTYLE
  2
SLDDIMSTYLE6
 70
     0
  3

  4

  5

  6
CLOSED
  7
CLOSED
 40
1.0
 41
0.4724409449
 42
0.0625
 43
0.38
 44
0.0
 45
0.000000001
 46
0.0
 47
0.0
 48
0.0
140
0.2755905512
141
0.09
142
0.0
143
25.4
144
1.0
145
0.0
146
1.0
147
0.0688976378
 71
     0
 72
     0
 73
     1
 74
     1
 75
     0
 76
     0
 77
     0
 78
     4
170
     0
171
     2
172
     0
173
     1
174
     0
175
     0
176
     0
177
     0
178
     0
  0
ENDTAB
  0
ENDSEC
  0
SECTION
  2
BLOCKS
  0
BLOCK
  8
0
  2
$MODEL_SPACE
 70
     0
 10
0.0
 20
0.0
 30
0.0
  3
$MODEL_SPACE
  1

  0
ENDBLK
  5
21
  8
0
  0
BLOCK
 67
     1
  8
0
  2
$PAPER_SPACE
 70
     0
 10
0.0
 20
0.0
 30
0.0
  3
$PAPER_SPACE
  1

  0
ENDBLK
  5
1D
 67
     1
  8
0
  0
BLOCK
  8
0
  2
SW_NOTE_0
 70
     0
 10
0.0
 20
0.0
 30
0.0
  3
SW_NOTE_0
  1

  0
TEXT
  5
6D
  8
0
  6
CONTINUOUS
 62
     0
 10
0.0
 20
0.0883150155
 30
0.0
 40
0.25
  1
The information on this file is the sole property of SoundTube
 41
0.6435483871
 11
0.0
 21
0.0
 31
0.0
 73
     1
  0
TEXT
  5
6E
  8
0
  6
CONTINUOUS
 62
     0
 10
0.0
 20
-0.2450183138
 30
0.0
 40
0.25
  1
Entertainment. Any reproduction in part or whole without written
 41
0.65625
 11
0.0
 21
-0.3333333293
 31
0.0
 73
     1
  0
TEXT
  5
6F
  8
0
  6
CONTINUOUS
 62
     0
 10
0.0
 20
-0.5783516431
 30
0.0
 40
0.25
  1
permission from SoundTube Entertainment is strictly prohibited.
 41
0.6666666667
 11
0.0
 21
-0.6666666586
 31
0.0
 73
     1
  0
ENDBLK
  5
6C
  8
0
  0
BLOCK
  8
0
  2
_CLOSED
 70
     0
 10
0.0
 20
0.0
 30
0.0
  3
_CLOSED
  1

  0
LINE
  5
135
  8
0
  6
BYBLOCK
 62
     0
 10
-1.0
 20
0.166667
 30
0.0
 11
0.0
 21
0.0
 31
0.0
  0
LINE
  5
136
  8
0
  6
BYBLOCK
 62
     0
 10
0.0
 20
0.0
 30
0.0
 11
-1.0
 21
-0.166667
 31
0.0
  0
LINE
  5
137
  8
0
  6
BYBLOCK
 62
     0
 10
-1.0
 20
0.166667
 30
0.0
 11
-1.0
 21
-0.166667
 31
0.0
  0
LINE
  5
138
  8
0
  6
BYBLOCK
 62
     0
 10
0.0
 20
0.0
 30
0.0
 11
-1.0
 21
0.0
 31
0.0
  0
ENDBLK
  5
134
  8
0
  0
BLOCK
  8
0
  2
*D3
 70
     1
 10
0.0
 20
0.0
 30
0.0
  3
*D3
  1

  0
INSERT
  5
13C
  8
0
  6
CONTINUOUS
 62
     7
  2
_CLOSED
 10
9.8009637545
 20
4.5345220127
 30
-0.4007848463
 41
0.4724409449
 42
0.4724409449
 50
270.0
  0
INSERT
  5
13D
  8
0
  6
CONTINUOUS
 62
     7
  2
_CLOSED
 10
9.8009637545
 20
8.4765220127
 30
-0.4007848463
 41
0.4724409449
 42
0.4724409449
 50
90.0
  0
LINE
  5
13E
  8
0
  6
CONTINUOUS
 62
     7
 10
8.5916613923
 20
4.5345220127
 30
0.0
 11
9.8797039119
 21
4.5345220127
 31
0.0
  0
LINE
  5
13F
  8
0
  6
CONTINUOUS
 62
     7
 10
8.5916613923
 20
8.4765220127
 30
0.0
 11
9.8797039119
 21
8.4765220127
 31
0.0
  0
LINE
  5
140
  8
0
  6
CONTINUOUS
 62
     7
 10
9.8009637545
 20
4.5345220127
 30
0.0
 11
9.8009637545
 21
6.3307730476
 31
0.0
  0
LINE
  5
141
  8
0
  6
CONTINUOUS
 62
     7
 10
9.8009637545
 20
8.4765220127
 30
0.0
 11
9.8009637545
 21
6.7681353713
 31
0.0
  0
TEXT
  5
142
  8
0
  6
CONTINUOUS
 62
     7
 10
9.4446864912
 20
6.428128169
 30
0.0
 40
0.2755905512
  1
3.94
 41
0.7
 11
9.4446864912
 21
6.3307730339
 31
0.0
 73
     1
  0
ENDBLK
  5
13B
  8
0
  0
BLOCK
  8
0
  2
*D4
 70
     1
 10
0.0
 20
0.0
 30
0.0
  3
*D4
  1

  0
INSERT
  5
148
  8
0
  6
CONTINUOUS
 62
     7
  2
_CLOSED
 10
8.5411212348
 20
9.6981940275
 30
-0.4007848463
 41
0.4724409449
 42
0.4724409449
 50
360.0
  0
INSERT
  5
149
  8
0
  6
CONTINUOUS
 62
     7
  2
_CLOSED
 10
3.9991392348
 20
9.6981940275
 30
-0.4007848463
 41
0.4724409449
 42
0.4724409449
 50
180.0
  0
LINE
  5
14A
  8
0
  6
CONTINUOUS
 62
     7
 10
8.5411212348
 20
8.5552621702
 30
0.0
 11
8.5411212348
 21
9.776934185
 31
0.0
  0
LINE
  5
14B
  8
0
  6
CONTINUOUS
 62
     7
 10
3.9991392348
 20
8.5552621702
 30
0.0
 11
3.9991392348
 21
9.776934185
 31
0.0
  0
LINE
  5
14C
  8
0
  6
CONTINUOUS
 62
     7
 10
8.5411212348
 20
9.6981940275
 30
0.0
 11
3.9991392348
 21
9.6981940275
 31
0.0
  0
TEXT
  5
14D
  8
0
  6
CONTINUOUS
 62
     7
 10
6.013043311
 20
9.7955491489
 30
0.0
 40
0.2755905512
  1
4.54
 50
0.0
 41
0.7
 11
6.013043311
 21
9.6981940137
 31
0.0
 73
     1
  0
ENDBLK
  5
147
  8
0
  0
BLOCK
  8
0
  2
*D5
 70
     1
 10
0.0
 20
0.0
 30
0.0
  3
*D5
  1

  0
INSERT
  5
15F
  8
0
  6
CONTINUOUS
 62
     7
  2
_CLOSED
 10
13.460060216
 20
9.2718234003
 30
0.408658862
 41
0.4724409449
 42
0.4724409449
 50
0.0
  0
INSERT
  5
160
  8
0
  6
CONTINUOUS
 62
     7
  2
_CLOSED
 10
14.020060216
 20
9.2718234003
 30
0.408658862
 41
0.4724409449
 42
0.4724409449
 50
180.0
  0
LINE
  5
161
  8
0
  6
CONTINUOUS
 62
     7
 10
13.460060216
 20
8.6607117867
 30
0.0
 11
13.460060216
 21
9.3505635578
 31
0.0
  0
LINE
  5
162
  8
0
  6
CONTINUOUS
 62
     7
 10
14.020060216
 20
8.6607117867
 30
0.0
 11
14.020060216
 21
9.3505635578
 31
0.0
  0
LINE
  5
163
  8
0
  6
CONTINUOUS
 62
     7
 10
13.460060216
 20
9.2718234003
 30
0.0
 11
12.5151783262
 21
9.2718234003
 31
0.0
  0
LINE
  5
164
  8
0
  6
CONTINUOUS
 62
     7
 10
13.460060216
 20
9.2718234003
 30
0.0
 11
14.020060216
 21
9.2718234003
 31
0.0
  0
LINE
  5
165
  8
0
  6
CONTINUOUS
 62
     7
 10
14.020060216
 20
9.2718234003
 30
0.0
 11
14.9649421058
 21
9.2718234003
 31
0.0
  0
TEXT
  5
166
  8
0
  6
CONTINUOUS
 62
     7
 10
13.3993768456
 20
9.3691785217
 30
0.0
 40
0.2755905512
  1
0.56
 41
0.7
 11
13.3993768456
 21
9.2718233865
 31
0.0
 73
     1
  0
ENDBLK
  5
15E
  8
0
  0
BLOCK
  8
0
  2
*D6
 70
     1
 10
0.0
 20
0.0
 30
0.0
  3
*D6
  1

  0
INSERT
  5
16B
  8
0
  6
CONTINUOUS
 62
     7
  2
_CLOSED
 10
15.1411155027
 20
8.0319716293
 30
0.408658862
 41
0.4724409449
 42
0.4724409449
 50
90.0
  0
INSERT
  5
16C
  8
0
  6
CONTINUOUS
 62
     7
  2
_CLOSED
 10
15.1411155027
 20
5.1919716293
 30
0.408658862
 41
0.4724409449
 42
0.4724409449
 50
270.0
  0
LINE
  5
16D
  8
0
  6
CONTINUOUS
 62
     7
 10
13.8188003735
 20
8.0319716293
 30
0.0
 11
15.2198556602
 21
8.0319716293
 31
0.0
  0
LINE
  5
16E
  8
0
  6
CONTINUOUS
 62
     7
 10
13.8188003735
 20
5.1919716293
 30
0.0
 11
15.2198556602
 21
5.1919716293
 31
0.0
  0
LINE
  5
16F
  8
0
  6
CONTINUOUS
 62
     7
 10
15.1411155027
 20
8.0319716293
 30
0.0
 11
15.1411155027
 21
6.9512163852
 31
0.0
  0
LINE
  5
170
  8
0
  6
CONTINUOUS
 62
     7
 10
15.1411155027
 20
5.1919716293
 30
0.0
 11
15.1411155027
 21
6.5138540615
 31
0.0
  0
TEXT
  5
171
  8
0
  6
CONTINUOUS
 62
     7
 10
14.7848382395
 20
6.611209183
 30
0.0
 40
0.2755905512
  1
2.84
 41
0.7
 11
14.7848382395
 21
6.5138540478
 31
0.0
 73
     1
  0
ENDBLK
  5
16A
  8
0
  0
BLOCK
  8
0
  2
*D7
 70
     1
 10
0.0
 20
0.0
 30
0.0
  3
*D7
  1

  0
INSERT
  5
177
  8
0
  6
CONTINUOUS
 62
     7
  2
_CLOSED
 10
13.671060216
 20
5.1919716293
 30
0.408658862
 41
0.4724409449
 42
0.4724409449
 50
360.0
  0
LINE
  5
178
  8
0
  6
CONTINUOUS
 62
     7
 10
13.671060216
 20
5.1919716293
 30
0.0
 11
11.4955208127
 21
5.1919716293
 31
0.0
  0
LINE
  5
179
  8
0
  6
CONTINUOUS
 62
     7
 10
13.671060216
 20
5.1919716293
 30
0.0
 11
13.809060216
 21
5.1919716293
 31
0.0
  0
TEXT
  5
17A
  8
0
  6
CONTINUOUS
 62
     7
 10
11.6205208127
 20
5.2872372444
 30
0.0
 40
0.2755905512
  1
%%c
 50
0.0
 41
0.7
 11
11.6205208127
 21
5.1898821093
 31
0.0
 73
     1
  0
TEXT
  5
17B
  8
0
  6
CONTINUOUS
 62
     7
 10
12.0359782052
 20
5.2872372307
 30
0.0
 40
0.2755905512
  1
0.14
 50
0.0
 41
0.7
 11
12.0359782052
 21
5.1898820955
 31
0.0
 73
     1
  0
ENDBLK
  5
176
  8
0
  0
BLOCK
  8
0
  2
*D8
 70
     1
 10
0.0
 20
0.0
 30
0.0
  3
*D8
  1

  0
INSERT
  5
2DE
  8
0
  6
CONTINUOUS
 62
     7
  2
_CLOSED
 10
3.4770940921
 20
11.6538279233
 30
0.0039370079
 41
0.4724409449
 42
0.4724409449
 50
90.0
  0
INSERT
  5
2DF
  8
0
  6
CONTINUOUS
 62
     7
  2
_CLOSED
 10
3.4770940921
 20
11.895162239
 30
0.0039370079
 41
0.4724409449
 42
0.4724409449
 50
270.0
  0
LINE
  5
2E0
  8
0
  6
CONTINUOUS
 62
     7
 10
5.9409427
 20
11.6538279233
 30
0.0
 11
3.3983539346
 21
11.6538279233
 31
0.0
  0
LINE
  5
2E1
  8
0
  6
CONTINUOUS
 62
     7
 10
4.5796700773
 20
11.895162239
 30
0.0
 11
3.3983539346
 21
11.895162239
 31
0.0
  0
LINE
  5
2E2
  8
0
  6
CONTINUOUS
 62
     7
 10
2.5145395655
 20
12.5498543636
 30
0.0
 11
3.4770940921
 21
12.5498543636
 31
0.0
  0
LINE
  5
2E3
  8
0
  6
CONTINUOUS
 62
     7
 10
3.4770940921
 20
12.5498543636
 30
0.0
 11
3.4770940921
 21
11.895162239
 31
0.0
  0
LINE
  5
2E4
  8
0
  6
CONTINUOUS
 62
     7
 10
3.4770940921
 20
11.6538279233
 30
0.0
 11
3.4770940921
 21
10.7089460335
 31
0.0
  0
LINE
  5
2E5
  8
0
  6
CONTINUOUS
 62
     7
 10
3.4770940921
 20
11.6538279233
 30
0.0
 11
3.4770940921
 21
11.895162239
 31
0.0
  0
TEXT
  5
2E6
  8
0
  6
CONTINUOUS
 62
     7
 10
2.6395395655
 20
12.6472094851
 30
0.0
 40
0.2755905512
  1
0.24
 41
0.7
 11
2.6395395655
 21
12.5498543499
 31
0.0
 73
     1
  0
ENDBLK
  5
2DD
  8
0
  0
BLOCK
  8
0
  2
*D9
 70
     1
 10
0.0
 20
0.0
 30
0.0
  3
*D9
  1

  0
INSERT
  5
2EB
  8
0
  6
CONTINUOUS
 62
     7
  2
_CLOSED
 10
9.5876785399
 20
13.138674239
 30
0.0535722279
 41
0.4724409449
 42
0.4724409449
 50
270.0
  0
INSERT
  5
2EC
  8
0
  6
CONTINUOUS
 62
     7
  2
_CLOSED
 10
9.5876785399
 20
11.895162239
 30
0.0535722279
 41
0.4724409449
 42
0.4724409449
 50
90.0
  0
LINE
  5
2ED
  8
0
  6
CONTINUOUS
 62
     7
 10
7.0936803923
 20
13.138674239
 30
0.0
 11
9.6664186974
 21
13.138674239
 31
0.0
  0
LINE
  5
2EE
  8
0
  6
CONTINUOUS
 62
     7
 10
7.9605903923
 20
11.895162239
 30
0.0
 11
9.6664186974
 21
11.895162239
 31
0.0
  0
LINE
  5
2EF
  8
0
  6
CONTINUOUS
 62
     7
 10
9.5876785399
 20
13.138674239
 30
0.0
 11
9.5876785399
 21
14.0835561288
 31
0.0
  0
LINE
  5
2F0
  8
0
  6
CONTINUOUS
 62
     7
 10
9.5876785399
 20
11.895162239
 30
0.0
 11
9.5876785399
 21
10.9502803492
 31
0.0
  0
LINE
  5
2F1
  8
0
  6
CONTINUOUS
 62
     7
 10
9.5876785399
 20
13.138674239
 30
0.0
 11
9.5876785399
 21
12.7689252827
 31
0.0
  0
LINE
  5
2F2
  8
0
  6
CONTINUOUS
 62
     7
 10
9.5876785399
 20
11.895162239
 30
0.0
 11
9.5876785399
 21
12.331562959
 31
0.0
  0
TEXT
  5
2F3
  8
0
  6
CONTINUOUS
 62
     7
 10
9.2314012766
 20
12.4289180805
 30
0.0
 40
0.2755905512
  1
1.24
 41
0.7
 11
9.2314012766
 21
12.3315629453
 31
0.0
 73
     1
  0
ENDBLK
  5
2EA
  8
0
  0
BLOCK
  8
0
  2
*D10
 70
     1
 10
0.0
 20
0.0
 30
0.0
  3
*D10
  1

  0
INSERT
  5
577
  8
0
  6
CONTINUOUS
 62
     7
  2
_CLOSED
 10
19.3494118363
 20
4.6419716293
 30
0.002519317
 41
0.4724409449
 42
0.4724409449
 50
270.0
  0
INSERT
  5
578
  8
0
  6
CONTINUOUS
 62
     7
  2
_CLOSED
 10
19.3494118363
 20
8.5819716293
 30
0.002519317
 41
0.4724409449
 42
0.4724409449
 50
90.0
  0
LINE
  5
579
  8
0
  6
CONTINUOUS
 62
     7
 10
18.4706672001
 20
4.6419716293
 30
0.0
 11
19.4281519938
 21
4.6419716293
 31
0.0
  0
LINE
  5
57A
  8
0
  6
CONTINUOUS
 62
     7
 10
18.4706672001
 20
8.5819716293
 30
0.0
 11
19.4281519938
 21
8.5819716293
 31
0.0
  0
LINE
  5
57B
  8
0
  6
CONTINUOUS
 62
     7
 10
19.3494118363
 20
4.6419716293
 30
0.0
 11
19.3494118363
 21
6.4212831132
 31
0.0
  0
LINE
  5
57C
  8
0
  6
CONTINUOUS
 62
     7
 10
19.3494118363
 20
8.5819716293
 30
0.0
 11
19.3494118363
 21
6.8586454369
 31
0.0
  0
TEXT
  5
57D
  8
0
  6
CONTINUOUS
 62
     7
 10
18.993134573
 20
6.5186382346
 30
0.0
 40
0.2755905512
  1
3.94
 41
0.7
 11
18.993134573
 21
6.4212830994
 31
0.0
 73
     1
  0
ENDBLK
  5
576
  8
0
  0
BLOCK
  8
0
  2
*D11
 70
     1
 10
0.0
 20
0.0
 30
0.0
  3
*D11
  1

  0
INSERT
  5
583
  8
0
  6
CONTINUOUS
 62
     7
  2
_CLOSED
 10
17.543742364
 20
8.3319716293
 30
0.002519317
 41
0.4724409449
 42
0.4724409449
 50
270.0
  0
INSERT
  5
584
  8
0
  6
CONTINUOUS
 62
     7
  2
_CLOSED
 10
17.543742364
 20
7.7319716293
 30
0.002519317
 41
0.4724409449
 42
0.4724409449
 50
90.0
  0
LINE
  5
585
  8
0
  6
CONTINUOUS
 62
     7
 10
17.9615934774
 20
8.3319716293
 30
0.0
 11
17.4650022066
 21
8.3319716293
 31
0.0
  0
LINE
  5
586
  8
0
  6
CONTINUOUS
 62
     7
 10
17.9615934774
 20
7.7319716293
 30
0.0
 11
17.4650022066
 21
7.7319716293
 31
0.0
  0
LINE
  5
587
  8
0
  6
CONTINUOUS
 62
     7
 10
17.543742364
 20
8.3319716293
 30
0.0
 11
17.543742364
 21
9.276853519
 31
0.0
  0
LINE
  5
588
  8
0
  6
CONTINUOUS
 62
     7
 10
17.543742364
 20
7.7319716293
 30
0.0
 11
17.543742364
 21
6.7870897395
 31
0.0
  0
LINE
  5
589
  8
0
  6
CONTINUOUS
 62
     7
 10
17.543742364
 20
8.3319716293
 30
0.0
 11
17.543742364
 21
8.2629530642
 31
0.0
  0
LINE
  5
58A
  8
0
  6
CONTINUOUS
 62
     7
 10
17.543742364
 20
7.7319716293
 30
0.0
 11
17.543742364
 21
7.8255907405
 31
0.0
  0
TEXT
  5
58B
  8
0
  6
CONTINUOUS
 62
     7
 10
17.1874651008
 20
7.922945862
 30
0.0
 40
0.2755905512
  1
0.60
 41
0.7
 11
17.1874651008
 21
7.8255907268
 31
0.0
 73
     1
  0
ENDBLK
  5
582
  8
0
  0
BLOCK
  8
0
  2
*D12
 70
     1
 10
0.0
 20
0.0
 30
0.0
  3
*D12
  1

  0
INSERT
  5
590
  8
0
  6
CONTINUOUS
 62
     7
  2
_CLOSED
 10
16.8028386682
 20
7.2369716293
 30
0.002519317
 41
0.4724409449
 42
0.4724409449
 50
270.0
  0
INSERT
  5
591
  8
0
  6
CONTINUOUS
 62
     7
  2
_CLOSED
 10
16.8028386682
 20
5.9869716293
 30
0.002519317
 41
0.4724409449
 42
0.4724409449
 50
90.0
  0
LINE
  5
592
  8
0
  6
CONTINUOUS
 62
     7
 10
17.9615934774
 20
7.2369716293
 30
0.0
 11
16.7240985107
 21
7.2369716293
 31
0.0
  0
LINE
  5
593
  8
0
  6
CONTINUOUS
 62
     7
 10
17.9615934774
 20
5.9869716293
 30
0.0
 11
16.7240985107
 21
5.9869716293
 31
0.0
  0
LINE
  5
594
  8
0
  6
CONTINUOUS
 62
     7
 10
16.8028386682
 20
7.2369716293
 30
0.0
 11
16.8028386682
 21
8.181853519
 31
0.0
  0
LINE
  5
595
  8
0
  6
CONTINUOUS
 62
     7
 10
16.8028386682
 20
5.9869716293
 30
0.0
 11
16.8028386682
 21
5.0420897395
 31
0.0
  0
LINE
  5
596
  8
0
  6
CONTINUOUS
 62
     7
 10
16.8028386682
 20
7.2369716293
 30
0.0
 11
16.8028386682
 21
6.8586454369
 31
0.0
  0
LINE
  5
597
  8
0
  6
CONTINUOUS
 62
     7
 10
16.8028386682
 20
5.9869716293
 30
0.0
 11
16.8028386682
 21
6.4212831132
 31
0.0
  0
TEXT
  5
598
  8
0
  6
CONTINUOUS
 62
     7
 10
16.446561405
 20
6.5186382346
 30
0.0
 40
0.2755905512
  1
1.25
 41
0.7
 11
16.446561405
 21
6.4212830994
 31
0.0
 73
     1
  0
ENDBLK
  5
58F
  8
0
  0
BLOCK
  8
0
  2
*D13
 70
     1
 10
0.0
 20
0.0
 30
0.0
  3
*D13
  1

  0
INSERT
  5
5AE
  8
0
  6
CONTINUOUS
 62
     7
  2
_CLOSED
 10
13.5902118581
 20
3.3970968092
 30
0.0535722279
 41
0.4724409449
 42
0.4724409449
 50
299.966563753
  0
LINE
  5
5AF
  8
0
  6
CONTINUOUS
 62
     7
 10
13.5902118581
 20
3.3970968092
 30
0.0
 11
13.2023492518
 21
4.0698008498
 31
0.0
  0
LINE
  5
5B0
  8
0
  6
CONTINUOUS
 62
     7
 10
13.2023492518
 20
4.0698008498
 30
0.0
 11
11.8916957622
 21
4.0698008498
 31
0.0
  0
TEXT
  5
5B1
  8
0
  6
CONTINUOUS
 62
     7
 10
12.0166957622
 20
4.1671559712
 30
0.0
 40
0.2755905512
  1
R
 41
0.7
 11
12.0166957622
 21
4.0698008361
 31
0.0
 73
     1
  0
TEXT
  5
5B2
  8
0
  6
CONTINUOUS
 62
     7
 10
12.2397947253
 20
4.1671559712
 30
0.0
 40
0.2755905512
  1
0.30
 41
0.7
 11
12.2397947253
 21
4.0698008361
 31
0.0
 73
     1
  0
ENDBLK
  5
5AD
  8
0
  0
ENDSEC
  0
SECTION
  2
ENTITIES
  0
LINE
  5
62
  8
0
  6
CONTINUOUS
 62
     7
 10
21.2900981461
 20
0.6203053435
 30
0.0
 11
0.660959651
 21
0.6203053435
 31
0.0
  0
LINE
  5
63
  8
0
  6
CONTINUOUS
 62
     7
 10
21.2900981461
 20
0.6203053435
 30
0.0
 11
21.2900981461
 21
16.3796946565
 31
0.0
  0
LINE
  5
64
  8
0
  6
CONTINUOUS
 62
     7
 10
21.2900981461
 20
16.3796946565
 30
0.0
 11
0.660959651
 21
16.3796946565
 31
0.0
  0
LINE
  5
65
  8
0
  6
CONTINUOUS
 62
     7
 10
0.660959651
 20
0.6203053435
 30
0.0
 11
0.660959651
 21
16.3796946565
 31
0.0
  0
LINE
  5
66
  8
0
  6
CONTINUOUS
 62
     7
 10
21.2900981461
 20
0.6203053435
 30
0.0
 11
12.5783860414
 21
0.6203053435
 31
0.0
  0
LINE
  5
67
  8
0
  6
CONTINUOUS
 62
     7
 10
21.2900981461
 20
0.6203053435
 30
0.0
 11
21.2900981461
 21
3.0918865867
 31
0.0
  0
TEXT
  5
68
  8
0
  6
CONTINUOUS
 62
     7
 10
15.1550252344
 20
3.2866321997
 30
0.0
 40
0.2755905512
  1
SURFACE / POLE MOUNT
 41
0.6475
 11
15.1550252344
 21
3.1892770645
 31
0.0
 73
     1
  0
TEXT
  5
69
  8
0
  6
CONTINUOUS
 62
     7
 10
2.628115134
 20
2.1093462563
 30
0.0
 40
0.2083333333
  1
PROPRIETARY AND CONFIDENTIAL
 41
0.675
 11
2.628115134
 21
2.0357504101
 31
0.0
 73
     1
  0
INSERT
  5
70
  8
0
  6
CONTINUOUS
 62
     7
  2
SW_NOTE_0
 10
0.8417247305
 20
1.4173595271
 30
0.0
  0
ARC
  5
71
  8
0
  6
CONTINUOUS
 62
     7
 10
7.7538224028
 20
4.4533738474
 30
0.0
 40
0.033973728732615
 50
186.5100136253
 51
274.8549777833
  0
ARC
  5
72
  8
0
  6
CONTINUOUS
 62
     7
 10
7.8999880668
 20
4.4533738474
 30
0.0
 40
0.0339737287326131
 50
265.1450222167
 51
353.4899863747
  0
LINE
  5
73
  8
0
  6
CONTINUOUS
 62
     7
 10
7.9337427348
 20
8.5390220127
 30
0.0
 11
7.9337427348
 21
8.5640220127
 31
0.0
  0
LINE
  5
74
  8
0
  6
CONTINUOUS
 62
     7
 10
7.7200677348
 20
8.5640220127
 30
0.0
 11
7.7200677348
 21
8.5390220127
 31
0.0
  0
LINE
  5
75
  8
0
  6
CONTINUOUS
 62
     7
 10
7.7200677348
 20
4.4720220127
 30
0.0
 11
7.7200677348
 21
4.4470220127
 31
0.0
  0
LINE
  5
76
  8
0
  6
CONTINUOUS
 62
     7
 10
7.9337427348
 20
4.4470220127
 30
0.0
 11
7.9337427348
 21
4.4720220127
 31
0.0
  0
ARC
  5
77
  8
0
  6
CONTINUOUS
 62
     7
 10
7.8999880668
 20
4.4656701781
 30
0.0
 40
0.033973728732615
 50
6.5100136253
 51
94.8549777833
  0
ARC
  5
78
  8
0
  6
CONTINUOUS
 62
     7
 10
7.7538224028
 20
4.4656701781
 30
0.0
 40
0.0339737287326129
 50
85.1450222167
 51
173.4899863747
  0
ARC
  5
79
  8
0
  6
CONTINUOUS
 62
     7
 10
7.7538224028
 20
8.5453738474
 30
0.0
 40
0.0339737287326148
 50
186.5100136253
 51
274.8549777833
  0
ARC
  5
7A
  8
0
  6
CONTINUOUS
 62
     7
 10
7.8999880668
 20
8.5453738474
 30
0.0
 40
0.0339737287326168
 50
265.1450222167
 51
353.4899863747
  0
ARC
  5
7B
  8
0
  6
CONTINUOUS
 62
     7
 10
7.8999880668
 20
8.5576701781
 30
0.0
 40
0.033973728732619
 50
6.5100136253
 51
94.8549777833
  0
ARC
  5
7C
  8
0
  6
CONTINUOUS
 62
     7
 10
7.7538224028
 20
8.5576701781
 30
0.0
 40
0.033973728732615
 50
85.1450222167
 51
173.4899863747
  0
LINE
  5
7D
  8
0
  6
CONTINUOUS
 62
     7
 10
4.8201927348
 20
8.5390220127
 30
0.0
 11
4.8201927348
 21
8.5640220127
 31
0.0
  0
LINE
  5
7E
  8
0
  6
CONTINUOUS
 62
     7
 10
4.6065177348
 20
8.5640220127
 30
0.0
 11
4.6065177348
 21
8.5390220127
 31
0.0
  0
ARC
  5
7F
  8
0
  6
CONTINUOUS
 62
     7
 10
4.6402724028
 20
8.5453738474
 30
0.0
 40
0.033973728732614
 50
186.5100136253
 51
274.8549777833
  0
ARC
  5
80
  8
0
  6
CONTINUOUS
 62
     7
 10
4.7864380668
 20
8.5453738474
 30
0.0
 40
0.0339737287326118
 50
265.1450222167
 51
353.4899863747
  0
ARC
  5
81
  8
0
  6
CONTINUOUS
 62
     7
 10
4.6402724028
 20
4.4533738474
 30
0.0
 40
0.0339737287326154
 50
186.5100136253
 51
274.8549777833
  0
ARC
  5
82
  8
0
  6
CONTINUOUS
 62
     7
 10
4.7864380668
 20
4.4533738474
 30
0.0
 40
0.0339737287326149
 50
265.1450222167
 51
353.4899863747
  0
LINE
  5
83
  8
0
  6
CONTINUOUS
 62
     7
 10
4.6065177348
 20
4.4720220127
 30
0.0
 11
4.6065177348
 21
4.4470220127
 31
0.0
  0
LINE
  5
84
  8
0
  6
CONTINUOUS
 62
     7
 10
4.8201927348
 20
4.4470220127
 30
0.0
 11
4.8201927348
 21
4.4720220127
 31
0.0
  0
ARC
  5
85
  8
0
  6
CONTINUOUS
 62
     7
 10
4.7864380668
 20
4.4656701781
 30
0.0
 40
0.033973728732615
 50
6.5100136253
 51
94.8549777833
  0
ARC
  5
86
  8
0
  6
CONTINUOUS
 62
     7
 10
4.6402724028
 20
4.4656701781
 30
0.0
 40
0.0339737287326146
 50
85.1450222167
 51
173.4899863747
  0
ARC
  5
87
  8
0
  6
CONTINUOUS
 62
     7
 10
4.7864380668
 20
8.5576701781
 30
0.0
 40
0.0339737287326159
 50
6.5100136253
 51
94.8549777833
  0
ARC
  5
88
  8
0
  6
CONTINUOUS
 62
     7
 10
4.6402724028
 20
8.5576701781
 30
0.0
 40
0.033973728732615
 50
85.1450222167
 51
173.4899863747
  0
LINE
  5
89
  8
0
  6
CONTINUOUS
 62
     7
 10
4.9013892348
 20
4.4995220127
 30
0.0
 11
4.9013892348
 21
4.3145220127
 31
0.0
  0
LINE
  5
8A
  8
0
  6
CONTINUOUS
 62
     7
 10
5.3409492348
 20
4.3145220127
 30
0.0
 11
5.3409492348
 21
4.4995220127
 31
0.0
  0
ARC
  5
8B
  8
0
  6
CONTINUOUS
 62
     7
 10
5.3316584389
 20
4.3152033847
 30
0.0
 40
0.0093157477722462
 50
275.9752219339
 51
355.8055290335
  0
ARC
  5
8C
  8
0
  6
CONTINUOUS
 62
     7
 10
4.9128227928
 20
4.3162253093
 30
0.0
 40
0.0115597347839509
 50
188.473234439
 51
250.7221718276
  0
ARC
  5
8D
  8
0
  6
CONTINUOUS
 62
     7
 10
6.8810699588
 20
4.2446577923
 30
0.0
 40
0.0452983049768211
 50
186.5100136253
 51
274.8549777833
  0
ARC
  5
8E
  8
0
  6
CONTINUOUS
 62
     7
 10
7.1878825107
 20
4.2446577923
 30
0.0
 40
0.0452983049768212
 50
265.1450222167
 51
353.4899863747
  0
LINE
  5
8F
  8
0
  6
CONTINUOUS
 62
     7
 10
6.8360637348
 20
4.4995220127
 30
0.0
 11
6.8360637348
 21
4.2395220127
 31
0.0
  0
LINE
  5
90
  8
0
  6
CONTINUOUS
 62
     7
 10
7.2328887348
 20
4.2395220127
 30
0.0
 11
7.2328887348
 21
4.4995220127
 31
0.0
  0
LINE
  5
91
  8
0
  6
CONTINUOUS
 62
     7
 10
6.1156737348
 20
4.4995220127
 30
0.0
 11
6.1156737348
 21
4.2395220127
 31
0.0
  0
LINE
  5
92
  8
0
  6
CONTINUOUS
 62
     7
 10
6.5124987348
 20
4.2395220127
 30
0.0
 11
6.5124987348
 21
4.4995220127
 31
0.0
  0
ARC
  5
93
  8
0
  6
CONTINUOUS
 62
     7
 10
6.1606799588
 20
4.2446577923
 30
0.0
 40
0.0452983049768211
 50
186.5100136253
 51
274.8549777833
  0
ARC
  5
94
  8
0
  6
CONTINUOUS
 62
     7
 10
6.4674925107
 20
4.2446577923
 30
0.0
 40
0.0452983049768223
 50
265.1450222167
 51
353.4899863747
  0
LINE
  5
95
  8
0
  6
CONTINUOUS
 62
     7
 10
7.3641462348
 20
4.4995220127
 30
0.0
 11
7.3641462348
 21
4.4545220127
 31
0.0
  0
LINE
  5
96
  8
0
  6
CONTINUOUS
 62
     7
 10
7.5961362348
 20
4.4545220127
 30
0.0
 11
7.5961362348
 21
4.4995220127
 31
0.0
  0
LINE
  5
97
  8
0
  6
CONTINUOUS
 62
     7
 10
5.8492923257
 20
8.8609540454
 30
0.0
 11
5.0532923257
 21
8.8609540454
 31
0.0
  0
LINE
  5
98
  8
0
  6
CONTINUOUS
 62
     7
 10
5.8492923257
 20
8.8609540454
 30
0.0
 11
5.8492923257
 21
8.5557924527
 31
0.0
  0
LINE
  5
99
  8
0
  6
CONTINUOUS
 62
     7
 10
5.8492923257
 20
8.5557924527
 30
0.0
 11
5.0532923257
 21
8.5557924527
 31
0.0
  0
LINE
  5
9A
  8
0
  6
CONTINUOUS
 62
     7
 10
5.0532923257
 20
8.8609540454
 30
0.0
 11
5.0532923257
 21
8.5557924527
 31
0.0
  0
CIRCLE
  5
9B
  8
0
  6
CONTINUOUS
 62
     7
 10
5.7439120238
 20
8.708373249
 30
0.0
 40
0.055537880734672
  0
CIRCLE
  5
9C
  8
0
  6
CONTINUOUS
 62
     7
 10
5.5488322251
 20
8.708373249
 30
0.0
 40
0.055537880734672
  0
CIRCLE
  5
9D
  8
0
  6
CONTINUOUS
 62
     7
 10
5.1586726277
 20
8.708373249
 30
0.0
 40
0.055537880734672
  0
CIRCLE
  5
9E
  8
0
  6
CONTINUOUS
 62
     7
 10
5.3537524264
 20
8.708373249
 30
0.0
 40
0.055537880734672
  0
LINE
  5
9F
  8
0
  6
CONTINUOUS
 62
     7
 10
5.8492923257
 20
8.9107924527
 30
0.0
 11
5.0532923257
 21
8.9107924527
 31
0.0
  0
LINE
  5
A0
  8
0
  6
CONTINUOUS
 62
     7
 10
5.8492923257
 20
8.9107924527
 30
0.0
 11
5.8492923257
 21
8.8609540454
 31
0.0
  0
LINE
  5
A1
  8
0
  6
CONTINUOUS
 62
     7
 10
5.0532923257
 20
8.9107924527
 30
0.0
 11
5.0532923257
 21
8.8609540454
 31
0.0
  0
LINE
  5
A2
  8
0
  6
CONTINUOUS
 62
     7
 10
5.7800473518
 20
8.5557924527
 30
0.0
 11
5.7800473518
 21
8.5115220127
 31
0.0
  0
LINE
  5
A3
  8
0
  6
CONTINUOUS
 62
     7
 10
5.8492923257
 20
8.5557924527
 30
0.0
 11
5.8492923257
 21
8.5115220127
 31
0.0
  0
LINE
  5
A4
  8
0
  6
CONTINUOUS
 62
     7
 10
5.5810473518
 20
8.5557924527
 30
0.0
 11
5.5810473518
 21
8.5115220127
 31
0.0
  0
LINE
  5
A5
  8
0
  6
CONTINUOUS
 62
     7
 10
5.7195372997
 20
8.5557924527
 30
0.0
 11
5.7195372997
 21
8.5115220127
 31
0.0
  0
LINE
  5
A6
  8
0
  6
CONTINUOUS
 62
     7
 10
5.1225372997
 20
8.5557924527
 30
0.0
 11
5.1225372997
 21
8.5115220127
 31
0.0
  0
LINE
  5
A7
  8
0
  6
CONTINUOUS
 62
     7
 10
5.0532923257
 20
8.5557924527
 30
0.0
 11
5.0532923257
 21
8.5115220127
 31
0.0
  0
LINE
  5
A8
  8
0
  6
CONTINUOUS
 62
     7
 10
5.1830473518
 20
8.5557924527
 30
0.0
 11
5.1830473518
 21
8.5115220127
 31
0.0
  0
LINE
  5
A9
  8
0
  6
CONTINUOUS
 62
     7
 10
5.3215372997
 20
8.5557924527
 30
0.0
 11
5.3215372997
 21
8.5115220127
 31
0.0
  0
LINE
  5
AA
  8
0
  6
CONTINUOUS
 62
     7
 10
5.3820473518
 20
8.5557924527
 30
0.0
 11
5.3820473518
 21
8.5115220127
 31
0.0
  0
LINE
  5
AB
  8
0
  6
CONTINUOUS
 62
     7
 10
5.5205372997
 20
8.5557924527
 30
0.0
 11
5.5205372997
 21
8.5115220127
 31
0.0
  0
LINE
  5
AC
  8
0
  6
CONTINUOUS
 62
     7
 10
7.0149402348
 20
4.5345220127
 30
0.0
 11
7.0149402348
 21
8.4765220127
 31
0.0
  0
LINE
  5
AD
  8
0
  6
CONTINUOUS
 62
     7
 10
6.6251302348
 20
8.4765220127
 30
0.0
 11
6.6251302348
 21
4.5345220127
 31
0.0
  0
LINE
  5
AE
  8
0
  6
CONTINUOUS
 62
     7
 10
7.0149402348
 20
8.4765220127
 30
0.0
 11
6.6251302348
 21
8.4765220127
 31
0.0
  0
LINE
  5
AF
  8
0
  6
CONTINUOUS
 62
     7
 10
7.0149402348
 20
4.5345220127
 30
0.0
 11
6.6251302348
 21
4.5345220127
 31
0.0
  0
LINE
  5
B0
  8
0
  6
CONTINUOUS
 62
     7
 10
7.0576752348
 20
4.5345220127
 30
0.0
 11
7.0576752348
 21
8.4765220127
 31
0.0
  0
LINE
  5
B1
  8
0
  6
CONTINUOUS
 62
     7
 10
7.0564542348
 20
8.4765220127
 30
0.0
 11
7.0149402348
 21
8.4765220127
 31
0.0
  0
LINE
  5
B2
  8
0
  6
CONTINUOUS
 62
     7
 10
7.0564542348
 20
4.5345220127
 30
0.0
 11
7.0149402348
 21
4.5345220127
 31
0.0
  0
LINE
  5
B3
  8
0
  6
CONTINUOUS
 62
     7
 10
5.9731302348
 20
8.4765220127
 30
0.0
 11
5.9731302348
 21
4.5345220127
 31
0.0
  0
LINE
  5
B4
  8
0
  6
CONTINUOUS
 62
     7
 10
6.5671302348
 20
8.4765220127
 30
0.0
 11
5.9731302348
 21
8.4765220127
 31
0.0
  0
LINE
  5
B5
  8
0
  6
CONTINUOUS
 62
     7
 10
6.5671302348
 20
4.5345220127
 30
0.0
 11
5.9731302348
 21
4.5345220127
 31
0.0
  0
LINE
  5
B6
  8
0
  6
CONTINUOUS
 62
     7
 10
6.5671302348
 20
4.5345220127
 30
0.0
 11
6.5671302348
 21
8.4765220127
 31
0.0
  0
LINE
  5
B7
  8
0
  6
CONTINUOUS
 62
     7
 10
5.5253202348
 20
4.5345220127
 30
0.0
 11
5.5253202348
 21
8.4765220127
 31
0.0
  0
LINE
  5
B8
  8
0
  6
CONTINUOUS
 62
     7
 10
5.9151302348
 20
8.4765220127
 30
0.0
 11
5.5253202348
 21
8.4765220127
 31
0.0
  0
LINE
  5
B9
  8
0
  6
CONTINUOUS
 62
     7
 10
5.9151302348
 20
4.5345220127
 30
0.0
 11
5.9151302348
 21
8.4765220127
 31
0.0
  0
LINE
  5
BA
  8
0
  6
CONTINUOUS
 62
     7
 10
5.9151302348
 20
4.5345220127
 30
0.0
 11
5.5253202348
 21
4.5345220127
 31
0.0
  0
LINE
  5
BB
  8
0
  6
CONTINUOUS
 62
     7
 10
5.4825852348
 20
4.5345220127
 30
0.0
 11
5.4825852348
 21
8.4765220127
 31
0.0
  0
LINE
  5
BC
  8
0
  6
CONTINUOUS
 62
     7
 10
5.5253202348
 20
8.4765220127
 30
0.0
 11
5.4838062348
 21
8.4765220127
 31
0.0
  0
LINE
  5
BD
  8
0
  6
CONTINUOUS
 62
     7
 10
5.5253202348
 20
4.5345220127
 30
0.0
 11
5.4838062348
 21
4.5345220127
 31
0.0
  0
LINE
  5
BE
  8
0
  6
CONTINUOUS
 62
     7
 10
7.9441212348
 20
4.4995220127
 30
0.0
 11
7.9441212348
 21
4.5345220127
 31
0.0
  0
LINE
  5
BF
  8
0
  6
CONTINUOUS
 62
     7
 10
7.9441212348
 20
4.4995220127
 30
0.0
 11
7.8818502348
 21
4.4995220127
 31
0.0
  0
LINE
  5
C0
  8
0
  6
CONTINUOUS
 62
     7
 10
7.8818502348
 20
4.4995220127
 30
0.0
 11
7.8818502348
 21
4.5345220127
 31
0.0
  0
LINE
  5
C1
  8
0
  6
CONTINUOUS
 62
     7
 10
7.9441212348
 20
4.5345220127
 30
0.0
 11
7.8818502348
 21
4.5345220127
 31
0.0
  0
LINE
  5
C2
  8
0
  6
CONTINUOUS
 62
     7
 10
7.8818502348
 20
8.5115220127
 30
0.0
 11
7.8818502348
 21
8.4765220127
 31
0.0
  0
LINE
  5
C3
  8
0
  6
CONTINUOUS
 62
     7
 10
7.9441212348
 20
8.5115220127
 30
0.0
 11
7.8818502348
 21
8.5115220127
 31
0.0
  0
LINE
  5
C4
  8
0
  6
CONTINUOUS
 62
     7
 10
7.9441212348
 20
8.5115220127
 30
0.0
 11
7.9441212348
 21
8.4765220127
 31
0.0
  0
LINE
  5
C5
  8
0
  6
CONTINUOUS
 62
     7
 10
7.9441212348
 20
8.4765220127
 30
0.0
 11
7.8818502348
 21
8.4765220127
 31
0.0
  0
LINE
  5
C6
  8
0
  6
CONTINUOUS
 62
     7
 10
7.60051448
 20
4.4995220127
 30
0.0
 11
7.60051448
 21
4.5345220127
 31
0.0
  0
LINE
  5
C7
  8
0
  6
CONTINUOUS
 62
     7
 10
7.8818502348
 20
4.4995220127
 30
0.0
 11
7.60051448
 21
4.4995220127
 31
0.0
  0
LINE
  5
C8
  8
0
  6
CONTINUOUS
 62
     7
 10
7.8818502348
 20
4.5345220127
 30
0.0
 11
7.60051448
 21
4.5345220127
 31
0.0
  0
LINE
  5
C9
  8
0
  6
CONTINUOUS
 62
     7
 10
7.60051448
 20
8.5115220127
 30
0.0
 11
7.60051448
 21
8.4765220127
 31
0.0
  0
LINE
  5
CA
  8
0
  6
CONTINUOUS
 62
     7
 10
7.8818502348
 20
8.4765220127
 30
0.0
 11
7.60051448
 21
8.4765220127
 31
0.0
  0
LINE
  5
CB
  8
0
  6
CONTINUOUS
 62
     7
 10
7.8818502348
 20
8.5115220127
 30
0.0
 11
7.60051448
 21
8.5115220127
 31
0.0
  0
LINE
  5
CC
  8
0
  6
CONTINUOUS
 62
     7
 10
7.57609448
 20
8.5115220127
 30
0.0
 11
7.57609448
 21
8.4765220127
 31
0.0
  0
LINE
  5
CD
  8
0
  6
CONTINUOUS
 62
     7
 10
7.60051448
 20
8.4765220127
 30
0.0
 11
7.57609448
 21
8.4765220127
 31
0.0
  0
LINE
  5
CE
  8
0
  6
CONTINUOUS
 62
     7
 10
7.60051448
 20
8.5115220127
 30
0.0
 11
7.57609448
 21
8.5115220127
 31
0.0
  0
LINE
  5
CF
  8
0
  6
CONTINUOUS
 62
     7
 10
7.57609448
 20
4.4995220127
 30
0.0
 11
7.57609448
 21
4.5345220127
 31
0.0
  0
LINE
  5
D0
  8
0
  6
CONTINUOUS
 62
     7
 10
7.60051448
 20
4.4995220127
 30
0.0
 11
7.57609448
 21
4.4995220127
 31
0.0
  0
LINE
  5
D1
  8
0
  6
CONTINUOUS
 62
     7
 10
7.60051448
 20
4.5345220127
 30
0.0
 11
7.57609448
 21
4.5345220127
 31
0.0
  0
LINE
  5
D2
  8
0
  6
CONTINUOUS
 62
     7
 10
4.9397459895
 20
4.4995220127
 30
0.0
 11
4.9397459895
 21
4.5345220127
 31
0.0
  0
LINE
  5
D3
  8
0
  6
CONTINUOUS
 62
     7
 10
4.6584102348
 20
4.4995220127
 30
0.0
 11
4.6584102348
 21
4.5345220127
 31
0.0
  0
LINE
  5
D4
  8
0
  6
CONTINUOUS
 62
     7
 10
4.9397459895
 20
4.5345220127
 30
0.0
 11
4.6584102348
 21
4.5345220127
 31
0.0
  0
LINE
  5
D5
  8
0
  6
CONTINUOUS
 62
     7
 10
4.9397459895
 20
4.4995220127
 30
0.0
 11
4.6584102348
 21
4.4995220127
 31
0.0
  0
LINE
  5
D6
  8
0
  6
CONTINUOUS
 62
     7
 10
4.9641659895
 20
4.4995220127
 30
0.0
 11
4.9641659895
 21
4.5345220127
 31
0.0
  0
LINE
  5
D7
  8
0
  6
CONTINUOUS
 62
     7
 10
4.9641659895
 20
4.5345220127
 30
0.0
 11
4.9397459895
 21
4.5345220127
 31
0.0
  0
LINE
  5
D8
  8
0
  6
CONTINUOUS
 62
     7
 10
4.9641659895
 20
4.4995220127
 30
0.0
 11
4.9397459895
 21
4.4995220127
 31
0.0
  0
LINE
  5
D9
  8
0
  6
CONTINUOUS
 62
     7
 10
4.9397459895
 20
8.5115220127
 30
0.0
 11
4.9397459895
 21
8.4765220127
 31
0.0
  0
LINE
  5
DA
  8
0
  6
CONTINUOUS
 62
     7
 10
4.9641659895
 20
8.5115220127
 30
0.0
 11
4.9641659895
 21
8.4765220127
 31
0.0
  0
LINE
  5
DB
  8
0
  6
CONTINUOUS
 62
     7
 10
4.9641659895
 20
8.4765220127
 30
0.0
 11
4.9397459895
 21
8.4765220127
 31
0.0
  0
LINE
  5
DC
  8
0
  6
CONTINUOUS
 62
     7
 10
4.9641659895
 20
8.5115220127
 30
0.0
 11
4.9397459895
 21
8.5115220127
 31
0.0
  0
LINE
  5
DD
  8
0
  6
CONTINUOUS
 62
     7
 10
4.6584102348
 20
8.5115220127
 30
0.0
 11
4.6584102348
 21
8.4765220127
 31
0.0
  0
LINE
  5
DE
  8
0
  6
CONTINUOUS
 62
     7
 10
4.9397459895
 20
8.4765220127
 30
0.0
 11
4.6584102348
 21
8.4765220127
 31
0.0
  0
LINE
  5
DF
  8
0
  6
CONTINUOUS
 62
     7
 10
4.9397459895
 20
8.5115220127
 30
0.0
 11
4.6584102348
 21
8.5115220127
 31
0.0
  0
LINE
  5
E0
  8
0
  6
CONTINUOUS
 62
     7
 10
4.5961392348
 20
4.4995220127
 30
0.0
 11
4.5961392348
 21
4.5345220127
 31
0.0
  0
LINE
  5
E1
  8
0
  6
CONTINUOUS
 62
     7
 10
4.6584102348
 20
4.5345220127
 30
0.0
 11
4.5961392348
 21
4.5345220127
 31
0.0
  0
LINE
  5
E2
  8
0
  6
CONTINUOUS
 62
     7
 10
4.6584102348
 20
4.4995220127
 30
0.0
 11
4.5961392348
 21
4.4995220127
 31
0.0
  0
LINE
  5
E3
  8
0
  6
CONTINUOUS
 62
     7
 10
4.5961392348
 20
8.5115220127
 30
0.0
 11
4.5961392348
 21
8.4765220127
 31
0.0
  0
LINE
  5
E4
  8
0
  6
CONTINUOUS
 62
     7
 10
4.6584102348
 20
8.4765220127
 30
0.0
 11
4.5961392348
 21
8.4765220127
 31
0.0
  0
LINE
  5
E5
  8
0
  6
CONTINUOUS
 62
     7
 10
4.6584102348
 20
8.5115220127
 30
0.0
 11
4.5961392348
 21
8.5115220127
 31
0.0
  0
LINE
  5
E6
  8
0
  6
CONTINUOUS
 62
     7
 10
7.8818502348
 20
4.5345220127
 30
0.0
 11
7.8818502348
 21
8.4765220127
 31
0.0
  0
LINE
  5
E7
  8
0
  6
CONTINUOUS
 62
     7
 10
7.9398370184
 20
4.5345220127
 30
0.0
 11
7.9398370184
 21
8.4765220127
 31
0.0
  0
LINE
  5
E8
  8
0
  6
CONTINUOUS
 62
     7
 10
7.6010202348
 20
4.5345220127
 30
0.0
 11
7.6010202348
 21
8.4765220127
 31
0.0
  0
LINE
  5
E9
  8
0
  6
CONTINUOUS
 62
     7
 10
7.5766002348
 20
4.5345220127
 30
0.0
 11
7.5766002348
 21
8.4765220127
 31
0.0
  0
LINE
  5
EA
  8
0
  6
CONTINUOUS
 62
     7
 10
4.9636602348
 20
4.5345220127
 30
0.0
 11
4.9636602348
 21
8.4765220127
 31
0.0
  0
LINE
  5
EB
  8
0
  6
CONTINUOUS
 62
     7
 10
4.9392402348
 20
4.5345220127
 30
0.0
 11
4.9392402348
 21
8.4765220127
 31
0.0
  0
LINE
  5
EC
  8
0
  6
CONTINUOUS
 62
     7
 10
4.6584102348
 20
4.5345220127
 30
0.0
 11
4.6584102348
 21
8.4765220127
 31
0.0
  0
LINE
  5
ED
  8
0
  6
CONTINUOUS
 62
     7
 10
4.6004234512
 20
8.4765220127
 30
0.0
 11
4.6004234512
 21
4.5345220127
 31
0.0
  0
LINE
  5
EE
  8
0
  6
CONTINUOUS
 62
     7
 10
7.8971127348
 20
4.4195220127
 30
0.0
 11
7.7566977348
 21
4.4195220127
 31
0.0
  0
LINE
  5
EF
  8
0
  6
CONTINUOUS
 62
     7
 10
7.8971127348
 20
8.5915220127
 30
0.0
 11
7.7566977348
 21
8.5915220127
 31
0.0
  0
LINE
  5
F0
  8
0
  6
CONTINUOUS
 62
     7
 10
4.7835627348
 20
4.4195220127
 30
0.0
 11
4.6431477348
 21
4.4195220127
 31
0.0
  0
LINE
  5
F1
  8
0
  6
CONTINUOUS
 62
     7
 10
4.7835627348
 20
8.5915220127
 30
0.0
 11
4.6431477348
 21
8.5915220127
 31
0.0
  0
LINE
  5
F2
  8
0
  6
CONTINUOUS
 62
     7
 10
6.6251302348
 20
8.4765220127
 30
0.0
 11
6.5671302348
 21
8.4765220127
 31
0.0
  0
LINE
  5
F3
  8
0
  6
CONTINUOUS
 62
     7
 10
5.9731302348
 20
8.4765220127
 30
0.0
 11
5.9151302348
 21
8.4765220127
 31
0.0
  0
LINE
  5
F4
  8
0
  6
CONTINUOUS
 62
     7
 10
5.4838062348
 20
8.4765220127
 30
0.0
 11
4.9641659895
 21
8.4765220127
 31
0.0
  0
LINE
  5
F5
  8
0
  6
CONTINUOUS
 62
     7
 10
7.57609448
 20
8.4765220127
 30
0.0
 11
7.0564542348
 21
8.4765220127
 31
0.0
  0
LINE
  5
F6
  8
0
  6
CONTINUOUS
 62
     7
 10
7.57609448
 20
8.5115220127
 30
0.0
 11
4.9641659895
 21
8.5115220127
 31
0.0
  0
LINE
  5
F7
  8
0
  6
CONTINUOUS
 62
     7
 10
5.9731302348
 20
4.5345220127
 30
0.0
 11
5.9151302348
 21
4.5345220127
 31
0.0
  0
LINE
  5
F8
  8
0
  6
CONTINUOUS
 62
     7
 10
6.6251302348
 20
4.5345220127
 30
0.0
 11
6.5671302348
 21
4.5345220127
 31
0.0
  0
LINE
  5
F9
  8
0
  6
CONTINUOUS
 62
     7
 10
5.4838062348
 20
4.5345220127
 30
0.0
 11
4.9641659895
 21
4.5345220127
 31
0.0
  0
LINE
  5
FA
  8
0
  6
CONTINUOUS
 62
     7
 10
7.57609448
 20
4.4995220127
 30
0.0
 11
4.9641659895
 21
4.4995220127
 31
0.0
  0
LINE
  5
FB
  8
0
  6
CONTINUOUS
 62
     7
 10
7.57609448
 20
4.5345220127
 30
0.0
 11
7.0564542348
 21
4.5345220127
 31
0.0
  0
LINE
  5
FC
  8
0
  6
CONTINUOUS
 62
     7
 10
7.9666025584
 20
8.4765220127
 30
0.0
 11
7.9666025584
 21
4.5345220127
 31
0.0
  0
LINE
  5
FD
  8
0
  6
CONTINUOUS
 62
     7
 10
7.9666025584
 20
8.4765220127
 30
0.0
 11
7.9398370184
 21
8.4765220127
 31
0.0
  0
LINE
  5
FE
  8
0
  6
CONTINUOUS
 62
     7
 10
7.9398370184
 20
4.5345220127
 30
0.0
 11
7.9666025584
 21
4.5345220127
 31
0.0
  0
LINE
  5
FF
  8
0
  6
CONTINUOUS
 62
     7
 10
4.5736579111
 20
4.5345220127
 30
0.0
 11
4.5736579111
 21
8.4765220127
 31
0.0
  0
LINE
  5
100
  8
0
  6
CONTINUOUS
 62
     7
 10
4.5736579111
 20
4.5345220127
 30
0.0
 11
4.6004234512
 21
4.5345220127
 31
0.0
  0
LINE
  5
101
  8
0
  6
CONTINUOUS
 62
     7
 10
4.6004234512
 20
8.4765220127
 30
0.0
 11
4.5736579111
 21
8.4765220127
 31
0.0
  0
LINE
  5
102
  8
0
  6
CONTINUOUS
 62
     7
 10
8.5129212348
 20
4.5345220127
 30
0.0
 11
8.5129212348
 21
8.4765220127
 31
0.0
  0
LINE
  5
103
  8
0
  6
CONTINUOUS
 62
     7
 10
8.5129212348
 20
8.4765220127
 30
0.0
 11
7.9666025584
 21
8.4765220127
 31
0.0
  0
LINE
  5
104
  8
0
  6
CONTINUOUS
 62
     7
 10
8.5129212348
 20
4.5345220127
 30
0.0
 11
7.9666025584
 21
4.5345220127
 31
0.0
  0
LINE
  5
105
  8
0
  6
CONTINUOUS
 62
     7
 10
4.0273392348
 20
8.4765220127
 30
0.0
 11
4.0273392348
 21
4.5345220127
 31
0.0
  0
LINE
  5
106
  8
0
  6
CONTINUOUS
 62
     7
 10
4.5736579111
 20
4.5345220127
 30
0.0
 11
4.0273392348
 21
4.5345220127
 31
0.0
  0
LINE
  5
107
  8
0
  6
CONTINUOUS
 62
     7
 10
4.5736579111
 20
8.4765220127
 30
0.0
 11
4.0273392348
 21
8.4765220127
 31
0.0
  0
LINE
  5
108
  8
0
  6
CONTINUOUS
 62
     7
 10
3.9991392348
 20
4.5345220127
 30
0.0
 11
3.9991392348
 21
8.4765220127
 31
0.0
  0
LINE
  5
109
  8
0
  6
CONTINUOUS
 62
     7
 10
4.0273392348
 20
4.5345220127
 30
0.0
 11
3.9991392348
 21
4.5345220127
 31
0.0
  0
LINE
  5
10A
  8
0
  6
CONTINUOUS
 62
     7
 10
3.9991392348
 20
8.4765220127
 30
0.0
 11
4.0273392348
 21
8.4765220127
 31
0.0
  0
LINE
  5
10B
  8
0
  6
CONTINUOUS
 62
     7
 10
8.5411212348
 20
8.4765220127
 30
0.0
 11
8.5411212348
 21
4.5345220127
 31
0.0
  0
LINE
  5
10C
  8
0
  6
CONTINUOUS
 62
     7
 10
8.5129212348
 20
8.4765220127
 30
0.0
 11
8.5411212348
 21
8.4765220127
 31
0.0
  0
LINE
  5
10D
  8
0
  6
CONTINUOUS
 62
     7
 10
8.5411212348
 20
4.5345220127
 30
0.0
 11
8.5129212348
 21
4.5345220127
 31
0.0
  0
LINE
  5
10E
  8
0
  6
CONTINUOUS
 62
     7
 10
6.0057837348
 20
8.7848182859
 30
0.0
 11
6.5124987348
 21
8.7848182859
 31
0.0
  0
LINE
  5
10F
  8
0
  6
CONTINUOUS
 62
     7
 10
6.5124987348
 20
8.7848182859
 30
0.0
 11
6.5124987348
 21
8.7765220127
 31
0.0
  0
LINE
  5
110
  8
0
  6
CONTINUOUS
 62
     7
 10
6.0057837348
 20
8.7765220127
 30
0.0
 11
6.5124987348
 21
8.7765220127
 31
0.0
  0
LINE
  5
111
  8
0
  6
CONTINUOUS
 62
     7
 10
6.0057837348
 20
8.7765220127
 30
0.0
 11
6.0057837348
 21
8.7848182859
 31
0.0
  0
POLYLINE
  5
112
  8
0
  6
CONTINUOUS
 62
     7
 66
     1
 10
0.0
 20
0.0
 30
0.0
  0
VERTEX
  5
5B8
  8
0
  6
CONTINUOUS
 62
     7
 10
6.0226784674
 20
8.6565220127
 30
0.0
  0
VERTEX
  5
5B9
  8
0
  6
CONTINUOUS
 62
     7
 10
6.0237901355
 20
8.6465069851
 30
0.0
  0
VERTEX
  5
5BA
  8
0
  6
CONTINUOUS
 62
     7
 10
6.027894756
 20
8.6351612894
 30
0.0
  0
VERTEX
  5
5BB
  8
0
  6
CONTINUOUS
 62
     7
 10
6.0362408179
 20
8.6231992843
 30
0.0
  0
VERTEX
  5
5BC
  8
0
  6
CONTINUOUS
 62
     7
 10
6.0498031683
 20
8.6120917081
 30
0.0
  0
VERTEX
  5
5BD
  8
0
  6
CONTINUOUS
 62
     7
 10
6.068497219
 20
8.6039861796
 30
0.0
  0
VERTEX
  5
5BE
  8
0
  6
CONTINUOUS
 62
     7
 10
6.0904902198
 20
8.600984132
 30
0.0
  0
VERTEX
  5
5BF
  8
0
  6
CONTINUOUS
 62
     7
 10
6.1124832205
 20
8.6039861796
 30
0.0
  0
VERTEX
  5
5C0
  8
0
  6
CONTINUOUS
 62
     7
 10
6.1311772712
 20
8.6120917081
 30
0.0
  0
VERTEX
  5
5C1
  8
0
  6
CONTINUOUS
 62
     7
 10
6.1447396217
 20
8.6231992843
 30
0.0
  0
VERTEX
  5
5C2
  8
0
  6
CONTINUOUS
 62
     7
 10
6.1530856835
 20
8.6351612894
 30
0.0
  0
VERTEX
  5
5C3
  8
0
  6
CONTINUOUS
 62
     7
 10
6.1571903041
 20
8.6465069851
 30
0.0
  0
VERTEX
  5
5C4
  8
0
  6
CONTINUOUS
 62
     7
 10
6.1583019721
 20
8.6565220127
 30
0.0
  0
VERTEX
  5
5C5
  8
0
  6
CONTINUOUS
 62
     7
 10
6.1571903041
 20
8.6665370404
 30
0.0
  0
VERTEX
  5
5C6
  8
0
  6
CONTINUOUS
 62
     7
 10
6.1530856835
 20
8.6778827361
 30
0.0
  0
VERTEX
  5
5C7
  8
0
  6
CONTINUOUS
 62
     7
 10
6.1447396217
 20
8.6898447412
 30
0.0
  0
VERTEX
  5
5C8
  8
0
  6
CONTINUOUS
 62
     7
 10
6.1311772712
 20
8.7009523173
 30
0.0
  0
VERTEX
  5
5C9
  8
0
  6
CONTINUOUS
 62
     7
 10
6.1124832205
 20
8.7090578459
 30
0.0
  0
VERTEX
  5
5CA
  8
0
  6
CONTINUOUS
 62
     7
 10
6.0904902198
 20
8.7120598935
 30
0.0
  0
VERTEX
  5
5CB
  8
0
  6
CONTINUOUS
 62
     7
 10
6.068497219
 20
8.7090578459
 30
0.0
  0
VERTEX
  5
5CC
  8
0
  6
CONTINUOUS
 62
     7
 10
6.0498031683
 20
8.7009523173
 30
0.0
  0
VERTEX
  5
5CD
  8
0
  6
CONTINUOUS
 62
     7
 10
6.0362408179
 20
8.6898447412
 30
0.0
  0
VERTEX
  5
5CE
  8
0
  6
CONTINUOUS
 62
     7
 10
6.027894756
 20
8.6778827361
 30
0.0
  0
VERTEX
  5
5CF
  8
0
  6
CONTINUOUS
 62
     7
 10
6.0237901355
 20
8.6665370404
 30
0.0
  0
VERTEX
  5
5D0
  8
0
  6
CONTINUOUS
 62
     7
 10
6.0226784674
 20
8.6565220127
 30
0.0
  0
SEQEND
  5
5B7
  8
0
  6
CONTINUOUS
 62
     7
  0
POLYLINE
  5
113
  8
0
  6
CONTINUOUS
 62
     7
 66
     1
 10
0.0
 20
0.0
 30
0.0
  0
VERTEX
  5
5D2
  8
0
  6
CONTINUOUS
 62
     7
 10
6.5124987348
 20
8.6890713015
 30
0.0
  0
VERTEX
  5
5D3
  8
0
  6
CONTINUOUS
 62
     7
 10
6.5004921476
 20
8.6995076705
 30
0.0
  0
VERTEX
  5
5D4
  8
0
  6
CONTINUOUS
 62
     7
 10
6.4829901521
 20
8.7080046833
 30
0.0
  0
VERTEX
  5
5D5
  8
0
  6
CONTINUOUS
 62
     7
 10
6.4607154846
 20
8.711999493
 30
0.0
  0
VERTEX
  5
5D6
  8
0
  6
CONTINUOUS
 62
     7
 10
6.4366669324
 20
8.7093597872
 30
0.0
  0
VERTEX
  5
5D7
  8
0
  6
CONTINUOUS
 62
     7
 10
6.4152924432
 20
8.6999554493
 30
0.0
  0
VERTEX
  5
5D8
  8
0
  6
CONTINUOUS
 62
     7
 10
6.4001028901
 20
8.686026899
 30
0.0
  0
VERTEX
  5
5D9
  8
0
  6
CONTINUOUS
 62
     7
 10
6.3920021899
 20
8.6707412614
 30
0.0
  0
VERTEX
  5
5DA
  8
0
  6
CONTINUOUS
 62
     7
 10
6.3897419824
 20
8.6565220127
 30
0.0
  0
VERTEX
  5
5DB
  8
0
  6
CONTINUOUS
 62
     7
 10
6.3920021899
 20
8.642302764
 30
0.0
  0
VERTEX
  5
5DC
  8
0
  6
CONTINUOUS
 62
     7
 10
6.4001028901
 20
8.6270171264
 30
0.0
  0
VERTEX
  5
5DD
  8
0
  6
CONTINUOUS
 62
     7
 10
6.4152924432
 20
8.6130885762
 30
0.0
  0
VERTEX
  5
5DE
  8
0
  6
CONTINUOUS
 62
     7
 10
6.4366669324
 20
8.6036842382
 30
0.0
  0
VERTEX
  5
5DF
  8
0
  6
CONTINUOUS
 62
     7
 10
6.4607154846
 20
8.6010445325
 30
0.0
  0
VERTEX
  5
5E0
  8
0
  6
CONTINUOUS
 62
     7
 10
6.4829901521
 20
8.6050393422
 30
0.0
  0
VERTEX
  5
5E1
  8
0
  6
CONTINUOUS
 62
     7
 10
6.5004921476
 20
8.613536355
 30
0.0
  0
VERTEX
  5
5E2
  8
0
  6
CONTINUOUS
 62
     7
 10
6.5124987348
 20
8.623972724
 30
0.0
  0
SEQEND
  5
5D1
  8
0
  6
CONTINUOUS
 62
     7
  0
LINE
  5
114
  8
0
  6
CONTINUOUS
 62
     7
 10
6.5124987348
 20
8.7765220127
 30
0.0
 11
6.5124987348
 21
8.6890713015
 31
0.0
  0
LINE
  5
115
  8
0
  6
CONTINUOUS
 62
     7
 10
6.5124987348
 20
8.623972724
 30
0.0
 11
6.5124987348
 21
8.5365220127
 31
0.0
  0
LINE
  5
116
  8
0
  6
CONTINUOUS
 62
     7
 10
6.0057837348
 20
8.5365220127
 30
0.0
 11
6.0057837348
 21
8.7765220127
 31
0.0
  0
LINE
  5
117
  8
0
  6
CONTINUOUS
 62
     7
 10
6.0057837348
 20
8.5365220127
 30
0.0
 11
6.5124987348
 21
8.5365220127
 31
0.0
  0
LINE
  5
118
  8
0
  6
CONTINUOUS
 62
     7
 10
6.5124987348
 20
8.623972724
 30
0.0
 11
6.5124987348
 21
8.6890713015
 31
0.0
  0
LINE
  5
119
  8
0
  6
CONTINUOUS
 62
     7
 10
5.3260958062
 20
4.3045220127
 30
0.0
 11
4.9135992348
 21
4.3045220127
 31
0.0
  0
LINE
  5
11A
  8
0
  6
CONTINUOUS
 62
     7
 10
7.1840487348
 20
4.1995220127
 30
0.0
 11
6.8849037348
 21
4.1995220127
 31
0.0
  0
LINE
  5
11B
  8
0
  6
CONTINUOUS
 62
     7
 10
6.4636587348
 20
4.1995220127
 30
0.0
 11
6.1645137348
 21
4.1995220127
 31
0.0
  0
LINE
  5
11C
  8
0
  6
CONTINUOUS
 62
     7
 10
6.0057837348
 20
8.8365220127
 30
0.0
 11
6.5124987348
 21
8.8365220127
 31
0.0
  0
LINE
  5
11D
  8
0
  6
CONTINUOUS
 62
     7
 10
6.5124987348
 20
8.8365220127
 30
0.0
 11
6.5124987348
 21
8.7848182859
 31
0.0
  0
LINE
  5
11E
  8
0
  6
CONTINUOUS
 62
     7
 10
6.0057837348
 20
8.7848182859
 30
0.0
 11
6.0057837348
 21
8.8365220127
 31
0.0
  0
LINE
  5
11F
  8
0
  6
CONTINUOUS
 62
     7
 10
7.5961362348
 20
4.4545220127
 30
0.0
 11
7.3641462348
 21
4.4545220127
 31
0.0
  0
LINE
  5
120
  8
0
  6
CONTINUOUS
 62
     7
 10
5.5944091819
 20
4.4395220127
 30
0.0
 11
5.5944091819
 21
4.4995220127
 31
0.0
  0
LINE
  5
121
  8
0
  6
CONTINUOUS
 62
     7
 10
5.7465068485
 20
4.4395220127
 30
0.0
 11
5.5944091819
 21
4.4395220127
 31
0.0
  0
LINE
  5
122
  8
0
  6
CONTINUOUS
 62
     7
 10
5.7465068485
 20
4.4395220127
 30
0.0
 11
5.7465068485
 21
4.4995220127
 31
0.0
  0
LINE
  5
123
  8
0
  6
CONTINUOUS
 62
     7
 10
6.5124987348
 20
8.5365220127
 30
0.0
 11
6.5124987348
 21
8.5115220127
 31
0.0
  0
LINE
  5
124
  8
0
  6
CONTINUOUS
 62
     7
 10
6.0057837348
 20
8.5365220127
 30
0.0
 11
6.0057837348
 21
8.5115220127
 31
0.0
  0
LINE
  5
125
  8
0
  6
CONTINUOUS
 62
     7
 10
7.7200677348
 20
4.4495220127
 30
0.0
 11
7.9337427348
 21
4.4495220127
 31
0.0
  0
LINE
  5
126
  8
0
  6
CONTINUOUS
 62
     7
 10
7.9337427348
 20
8.5415220127
 30
0.0
 11
7.7200677348
 21
8.5415220127
 31
0.0
  0
LINE
  5
127
  8
0
  6
CONTINUOUS
 62
     7
 10
7.7200677348
 20
8.5615220127
 30
0.0
 11
7.9337427348
 21
8.5615220127
 31
0.0
  0
LINE
  5
128
  8
0
  6
CONTINUOUS
 62
     7
 10
7.9337427348
 20
4.4695220127
 30
0.0
 11
7.7200677348
 21
4.4695220127
 31
0.0
  0
LINE
  5
129
  8
0
  6
CONTINUOUS
 62
     7
 10
4.8201927348
 20
8.5415220127
 30
0.0
 11
4.6065177348
 21
8.5415220127
 31
0.0
  0
LINE
  5
12A
  8
0
  6
CONTINUOUS
 62
     7
 10
4.6065177348
 20
8.5615220127
 30
0.0
 11
4.8201927348
 21
8.5615220127
 31
0.0
  0
LINE
  5
12B
  8
0
  6
CONTINUOUS
 62
     7
 10
4.6065177348
 20
4.4495220127
 30
0.0
 11
4.8201927348
 21
4.4495220127
 31
0.0
  0
LINE
  5
12C
  8
0
  6
CONTINUOUS
 62
     7
 10
4.8201927348
 20
4.4695220127
 30
0.0
 11
4.6065177348
 21
4.4695220127
 31
0.0
  0
LINE
  5
12D
  8
0
  6
CONTINUOUS
 62
     7
 10
4.9013892348
 20
4.3145220127
 30
0.0
 11
5.3409492348
 21
4.3145220127
 31
0.0
  0
LINE
  5
12E
  8
0
  6
CONTINUOUS
 62
     7
 10
6.8360637348
 20
4.2395220127
 30
0.0
 11
7.2328887348
 21
4.2395220127
 31
0.0
  0
LINE
  5
12F
  8
0
  6
CONTINUOUS
 62
     7
 10
6.1156737348
 20
4.2395220127
 30
0.0
 11
6.5124987348
 21
4.2395220127
 31
0.0
  0
DIMENSION
  5
130
  8
0
  6
CONTINUOUS
 62
     7
  2
*D3
 10
9.8009637545
 20
8.4765220127
 30
0.0
 11
9.8009637545
 21
6.5494542095
 31
0.0
 70
   160
  3
SLDDIMSTYLE0
 13
8.5129212348
 23
4.5345220127
 33
0.0
 14
8.5129212348
 24
8.4765220127
 34
0.0
 50
90.0
  0
DIMENSION
  5
143
  8
0
  6
CONTINUOUS
 62
     7
  2
*D4
 10
3.9991392348
 20
9.6981940275
 30
0.0
 11
6.3693205742
 21
9.6981940275
 31
0.0
 70
   160
  3
SLDDIMSTYLE1
 13
8.5411212348
 23
8.4765220127
 33
0.0
 14
3.9991392348
 24
8.4765220127
 34
0.0
  0
LINE
  5
14E
  8
0
  6
CONTINUOUS
 62
     7
 10
13.460060216
 20
8.5819716293
 30
0.0
 11
13.460060216
 21
4.6419716293
 31
0.0
  0
LINE
  5
14F
  8
0
  6
CONTINUOUS
 62
     7
 10
14.020060216
 20
4.6419716293
 30
0.0
 11
14.020060216
 21
8.5819716293
 31
0.0
  0
LINE
  5
150
  8
0
  6
CONTINUOUS
 62
     7
 10
13.460060216
 20
8.5819716293
 30
0.0
 11
13.5127874887
 21
8.5819716293
 31
0.0
  0
LINE
  5
151
  8
0
  6
CONTINUOUS
 62
     7
 10
13.5127874887
 20
8.5819716293
 30
0.0
 11
13.5127874887
 21
4.6419716293
 31
0.0
  0
LINE
  5
152
  8
0
  6
CONTINUOUS
 62
     7
 10
13.460060216
 20
4.6419716293
 30
0.0
 11
13.5127874887
 21
4.6419716293
 31
0.0
  0
LINE
  5
153
  8
0
  6
CONTINUOUS
 62
     7
 10
13.9673329433
 20
8.5819716293
 30
0.0
 11
13.9673329433
 21
4.6419716293
 31
0.0
  0
LINE
  5
154
  8
0
  6
CONTINUOUS
 62
     7
 10
13.9673329433
 20
8.5819716293
 30
0.0
 11
14.020060216
 21
8.5819716293
 31
0.0
  0
LINE
  5
155
  8
0
  6
CONTINUOUS
 62
     7
 10
13.9673329433
 20
4.6419716293
 30
0.0
 11
14.020060216
 21
4.6419716293
 31
0.0
  0
CIRCLE
  5
156
  8
0
  6
CONTINUOUS
 62
     7
 10
13.740060216
 20
5.1919716293
 30
0.0
 40
0.0689999999999973
  0
CIRCLE
  5
157
  8
0
  6
CONTINUOUS
 62
     7
 10
13.740060216
 20
8.0319716293
 30
0.0
 40
0.069
  0
LINE
  5
158
  8
0
  6
CONTINUOUS
 62
     7
 10
13.5127874887
 20
8.5819716293
 30
0.0
 11
13.9673329433
 21
8.5819716293
 31
0.0
  0
LINE
  5
159
  8
0
  6
CONTINUOUS
 62
     7
 10
13.5127874887
 20
4.6419716293
 30
0.0
 11
13.9673329433
 21
4.6419716293
 31
0.0
  0
DIMENSION
  5
15A
  8
0
  6
CONTINUOUS
 62
     7
  2
*D5
 10
14.020060216
 20
9.2718234003
 30
0.0
 11
13.7556541089
 21
9.2718234003
 31
0.0
 70
   160
  3
SLDDIMSTYLE2
 13
13.460060216
 23
8.5819716293
 33
0.0
 14
14.020060216
 24
8.5819716293
 34
0.0
  0
DIMENSION
  5
167
  8
0
  6
CONTINUOUS
 62
     7
  2
*D6
 10
15.1411155027
 20
5.1919716293
 30
0.0
 11
15.1411155027
 21
6.7325352234
 31
0.0
 70
   160
  3
SLDDIMSTYLE0
 13
13.740060216
 23
8.0319716293
 33
0.0
 14
13.740060216
 24
5.1919716293
 34
0.0
 50
90.0
  0
DIMENSION
  5
172
  8
0
  6
CONTINUOUS
 62
     7
  2
*D7
 10
13.809060216
 20
5.1919716293
 30
0.0
 11
12.1695208944
 21
5.1919724167
 31
0.0
 70
   163
  1
<>
  3
SLDDIMSTYLE3
 15
13.671060216
 25
5.1919716293
 35
0.0
 40
0.0
  0
LINE
  5
17C
  8
0
  6
CONTINUOUS
 62
     7
 10
4.6205592348
 20
12.832964239
 30
0.0
 11
4.5917802348
 21
12.832964239
 31
0.0
  0
LINE
  5
17D
  8
0
  6
CONTINUOUS
 62
     7
 10
4.5917802348
 20
12.625464239
 30
0.0
 11
4.6205592348
 21
12.625464239
 31
0.0
  0
ARC
  5
17E
  8
0
  6
CONTINUOUS
 62
     7
 10
4.5917802348
 20
12.695464239
 30
0.0
 40
0.0700000000000003
 50
180.0
 51
270.0
  0
ARC
  5
17F
  8
0
  6
CONTINUOUS
 62
     7
 10
4.5917802348
 20
12.762964239
 30
0.0
 40
0.0700000000000003
 50
90.0
 51
180.0
  0
ARC
  5
180
  8
0
  6
CONTINUOUS
 62
     7
 10
6.0996828575
 20
11.8397893634
 30
0.0
 40
0.0200000000000005
 50
301.7228425455
 51
0.0
  0
ARC
  5
181
  8
0
  6
CONTINUOUS
 62
     7
 10
6.256901254
 20
11.5441044662
 30
0.0
 40
0.3276185739887453
 50
28.0
 51
58.2771574545
  0
ARC
  5
182
  8
0
  6
CONTINUOUS
 62
     7
 10
6.4396828575
 20
11.8397893634
 30
0.0
 40
0.0200000000000011
 50
180.0
 51
238.2771574546
  0
ARC
  5
183
  8
0
  6
CONTINUOUS
 62
     7
 10
6.282464461
 20
11.5441044662
 30
0.0
 40
0.3276185739887475
 50
121.7228425455
 51
152.0
  0
LINE
  5
184
  8
0
  6
CONTINUOUS
 62
     7
 10
6.1196828575
 20
11.895162239
 30
0.0
 11
6.1196828575
 21
11.8397893634
 31
0.0
  0
ARC
  5
185
  8
0
  6
CONTINUOUS
 62
     7
 10
6.5196828575
 20
11.6838279233
 30
0.0
 40
0.0299999999999998
 50
220.7490543775
 51
28.0
  0
LINE
  5
186
  8
0
  6
CONTINUOUS
 62
     7
 10
6.4196828575
 20
11.8397893634
 30
0.0
 11
6.4196828575
 21
11.895162239
 31
0.0
  0
ARC
  5
187
  8
0
  6
CONTINUOUS
 62
     7
 10
6.0196828575
 20
11.6838279233
 30
0.0
 40
0.0300000000000005
 50
152.0
 51
319.2509456225
  0
ARC
  5
188
  8
0
  6
CONTINUOUS
 62
     7
 10
6.2696828575
 20
11.468421331
 30
0.0
 40
0.2999999999999997
 50
40.7490543775
 51
139.2509456225
  0
CIRCLE
  5
189
  8
0
  6
CONTINUOUS
 62
     7
 10
7.033749946
 20
12.6222292059
 30
0.0
 40
0.148846270681675
  0
CIRCLE
  5
18A
  8
0
  6
CONTINUOUS
 62
     7
 10
7.0335127905
 20
12.6225387115
 30
0.0
 40
0.1974491345777314
  0
CIRCLE
  5
18B
  8
0
  6
CONTINUOUS
 62
     7
 10
6.313359946
 20
12.6222292059
 30
0.0
 40
0.1488462706816706
  0
CIRCLE
  5
18C
  8
0
  6
CONTINUOUS
 62
     7
 10
6.3131227905
 20
12.6225387115
 30
0.0
 40
0.1974491345777269
  0
CIRCLE
  5
18D
  8
0
  6
CONTINUOUS
 62
     7
 10
6.3137054434
 20
12.6222526335
 30
0.0
 40
0.0789842846485567
  0
CIRCLE
  5
18E
  8
0
  6
CONTINUOUS
 62
     7
 10
7.0340954434
 20
12.6222526335
 30
0.0
 40
0.0789842846485576
  0
CIRCLE
  5
18F
  8
0
  6
CONTINUOUS
 62
     7
 10
5.1201613238
 20
12.6221776216
 30
0.0
 40
0.2065621715582422
  0
LINE
  5
190
  8
0
  6
CONTINUOUS
 62
     7
 10
5.0198013144
 20
12.4985485755
 30
0.0
 11
5.1016873487
 21
12.4985485755
 31
0.0
  0
LINE
  5
191
  8
0
  6
CONTINUOUS
 62
     7
 10
5.1016873487
 20
12.4985485755
 30
0.0
 11
5.0702107472
 21
12.5239403885
 31
0.0
  0
LINE
  5
192
  8
0
  6
CONTINUOUS
 62
     7
 10
5.0702107472
 20
12.5239403885
 30
0.0
 11
5.2264812882
 21
12.7148136756
 31
0.0
  0
LINE
  5
193
  8
0
  6
CONTINUOUS
 62
     7
 10
5.2264812882
 20
12.7148136756
 30
0.0
 11
5.1908031656
 21
12.7435948074
 31
0.0
  0
LINE
  5
194
  8
0
  6
CONTINUOUS
 62
     7
 10
5.1908031656
 20
12.7435948074
 30
0.0
 11
5.0345326246
 21
12.5527215203
 31
0.0
  0
LINE
  5
195
  8
0
  6
CONTINUOUS
 62
     7
 10
5.0345326246
 20
12.5527215203
 30
0.0
 11
5.0030560231
 21
12.5781133333
 31
0.0
  0
LINE
  5
196
  8
0
  6
CONTINUOUS
 62
     7
 10
5.0030560231
 20
12.5781133333
 30
0.0
 11
5.0198013144
 21
12.4985485755
 31
0.0
  0
CIRCLE
  5
197
  8
0
  6
CONTINUOUS
 62
     7
 10
5.120102035
 20
12.6225577162
 30
0.0
 40
0.2187128875322563
  0
CIRCLE
  5
198
  8
0
  6
CONTINUOUS
 62
     7
 10
4.7130183808
 20
12.9979852803
 30
0.0
 40
0.0698707133429562
  0
CIRCLE
  5
199
  8
0
  6
CONTINUOUS
 62
     7
 10
4.712842631
 20
12.9982297848
 30
0.0
 40
0.106324998565366
  0
CIRCLE
  5
19A
  8
0
  6
CONTINUOUS
 62
     7
 10
4.7130183808
 20
12.0283852803
 30
0.0
 40
0.0698707133429553
  0
CIRCLE
  5
19B
  8
0
  6
CONTINUOUS
 62
     7
 10
4.712842631
 20
12.0286297848
 30
0.0
 40
0.1063249985653669
  0
CIRCLE
  5
19C
  8
0
  6
CONTINUOUS
 62
     7
 10
7.8265683808
 20
12.9979852803
 30
0.0
 40
0.0698707133429553
  0
CIRCLE
  5
19D
  8
0
  6
CONTINUOUS
 62
     7
 10
7.826392631
 20
12.9982297848
 30
0.0
 40
0.1063249985653669
  0
LINE
  5
19E
  8
0
  6
CONTINUOUS
 62
     7
 10
7.8211046543
 20
12.9923244146
 30
0.0
 11
7.8146952348
 21
12.985962239
 31
0.0
  0
LINE
  5
19F
  8
0
  6
CONTINUOUS
 62
     7
 10
7.8211046543
 20
12.9923244146
 30
0.0
 11
7.8211046543
 21
12.9559644146
 31
0.0
  0
LINE
  5
1A0
  8
0
  6
CONTINUOUS
 62
     7
 10
7.8211046543
 20
12.9559644146
 30
0.0
 11
7.8146952348
 21
12.949602239
 31
0.0
  0
LINE
  5
1A1
  8
0
  6
CONTINUOUS
 62
     7
 10
7.8146952348
 20
12.985962239
 30
0.0
 11
7.8146952348
 21
12.949602239
 31
0.0
  0
LINE
  5
1A2
  8
0
  6
CONTINUOUS
 62
     7
 10
4.7075546543
 20
12.9559644146
 30
0.0
 11
4.7011452348
 21
12.949602239
 31
0.0
  0
LINE
  5
1A3
  8
0
  6
CONTINUOUS
 62
     7
 10
4.7075546543
 20
12.9559644146
 30
0.0
 11
4.7191558153
 21
12.9559644146
 31
0.0
  0
LINE
  5
1A4
  8
0
  6
CONTINUOUS
 62
     7
 10
4.7191558153
 20
12.9559644146
 30
0.0
 11
4.7255652348
 21
12.949602239
 31
0.0
  0
LINE
  5
1A5
  8
0
  6
CONTINUOUS
 62
     7
 10
4.7011452348
 20
12.949602239
 30
0.0
 11
4.7255652348
 21
12.949602239
 31
0.0
  0
LINE
  5
1A6
  8
0
  6
CONTINUOUS
 62
     7
 10
7.7844746543
 20
12.0227244146
 30
0.0
 11
7.7780652348
 21
12.016362239
 31
0.0
  0
LINE
  5
1A7
  8
0
  6
CONTINUOUS
 62
     7
 10
7.7844746543
 20
12.0227244146
 30
0.0
 11
7.8211046543
 21
12.0227244146
 31
0.0
  0
LINE
  5
1A8
  8
0
  6
CONTINUOUS
 62
     7
 10
7.8211046543
 20
12.0227244146
 30
0.0
 11
7.8146952348
 21
12.016362239
 31
0.0
  0
LINE
  5
1A9
  8
0
  6
CONTINUOUS
 62
     7
 10
7.7780652348
 20
12.016362239
 30
0.0
 11
7.8146952348
 21
12.016362239
 31
0.0
  0
LINE
  5
1AA
  8
0
  6
CONTINUOUS
 62
     7
 10
7.8391152348
 20
12.949602239
 30
0.0
 11
7.8391152348
 21
12.985962239
 31
0.0
  0
LINE
  5
1AB
  8
0
  6
CONTINUOUS
 62
     7
 10
7.8391152348
 20
12.985962239
 30
0.0
 11
7.8757452348
 21
12.985962239
 31
0.0
  0
LINE
  5
1AC
  8
0
  6
CONTINUOUS
 62
     7
 10
7.8757452348
 20
12.985962239
 30
0.0
 11
7.8757452348
 21
13.010202239
 31
0.0
  0
LINE
  5
1AD
  8
0
  6
CONTINUOUS
 62
     7
 10
7.8757452348
 20
13.010202239
 30
0.0
 11
7.8391152348
 21
13.010202239
 31
0.0
  0
LINE
  5
1AE
  8
0
  6
CONTINUOUS
 62
     7
 10
7.8391152348
 20
13.010202239
 30
0.0
 11
7.8391152348
 21
13.046562239
 31
0.0
  0
LINE
  5
1AF
  8
0
  6
CONTINUOUS
 62
     7
 10
7.8391152348
 20
13.046562239
 30
0.0
 11
7.8146952348
 21
13.046562239
 31
0.0
  0
LINE
  5
1B0
  8
0
  6
CONTINUOUS
 62
     7
 10
7.8146952348
 20
13.046562239
 30
0.0
 11
7.8146952348
 21
13.010202239
 31
0.0
  0
LINE
  5
1B1
  8
0
  6
CONTINUOUS
 62
     7
 10
7.8146952348
 20
13.010202239
 30
0.0
 11
7.7780652348
 21
13.010202239
 31
0.0
  0
LINE
  5
1B2
  8
0
  6
CONTINUOUS
 62
     7
 10
7.7780652348
 20
13.010202239
 30
0.0
 11
7.7780652348
 21
12.985962239
 31
0.0
  0
LINE
  5
1B3
  8
0
  6
CONTINUOUS
 62
     7
 10
7.7780652348
 20
12.985962239
 30
0.0
 11
7.8146952348
 21
12.985962239
 31
0.0
  0
LINE
  5
1B4
  8
0
  6
CONTINUOUS
 62
     7
 10
7.8146952348
 20
12.949602239
 30
0.0
 11
7.8391152348
 21
12.949602239
 31
0.0
  0
LINE
  5
1B5
  8
0
  6
CONTINUOUS
 62
     7
 10
4.7075546543
 20
12.9923244146
 30
0.0
 11
4.7011452348
 21
12.985962239
 31
0.0
  0
LINE
  5
1B6
  8
0
  6
CONTINUOUS
 62
     7
 10
4.7075546543
 20
12.9923244146
 30
0.0
 11
4.7075546543
 21
12.9559644146
 31
0.0
  0
LINE
  5
1B7
  8
0
  6
CONTINUOUS
 62
     7
 10
4.7011452348
 20
12.985962239
 30
0.0
 11
4.7011452348
 21
12.949602239
 31
0.0
  0
LINE
  5
1B8
  8
0
  6
CONTINUOUS
 62
     7
 10
7.8327058153
 20
12.0706000634
 30
0.0
 11
7.8391152348
 21
12.076962239
 31
0.0
  0
LINE
  5
1B9
  8
0
  6
CONTINUOUS
 62
     7
 10
7.8327058153
 20
12.0706000634
 30
0.0
 11
7.8211046543
 21
12.0706000634
 31
0.0
  0
LINE
  5
1BA
  8
0
  6
CONTINUOUS
 62
     7
 10
7.8211046543
 20
12.0706000634
 30
0.0
 11
7.8146952348
 21
12.076962239
 31
0.0
  0
LINE
  5
1BB
  8
0
  6
CONTINUOUS
 62
     7
 10
7.8391152348
 20
12.076962239
 30
0.0
 11
7.8146952348
 21
12.076962239
 31
0.0
  0
LINE
  5
1BC
  8
0
  6
CONTINUOUS
 62
     7
 10
7.8211046543
 20
12.9559644146
 30
0.0
 11
7.8327058153
 21
12.9559644146
 31
0.0
  0
LINE
  5
1BD
  8
0
  6
CONTINUOUS
 62
     7
 10
7.8327058153
 20
12.9559644146
 30
0.0
 11
7.8391152348
 21
12.949602239
 31
0.0
  0
LINE
  5
1BE
  8
0
  6
CONTINUOUS
 62
     7
 10
4.7191558153
 20
13.0402000634
 30
0.0
 11
4.7255652348
 21
13.046562239
 31
0.0
  0
LINE
  5
1BF
  8
0
  6
CONTINUOUS
 62
     7
 10
4.7191558153
 20
13.0402000634
 30
0.0
 11
4.7075546543
 21
13.0402000634
 31
0.0
  0
LINE
  5
1C0
  8
0
  6
CONTINUOUS
 62
     7
 10
4.7075546543
 20
13.0402000634
 30
0.0
 11
4.7011452348
 21
13.046562239
 31
0.0
  0
LINE
  5
1C1
  8
0
  6
CONTINUOUS
 62
     7
 10
4.7255652348
 20
13.046562239
 30
0.0
 11
4.7011452348
 21
13.046562239
 31
0.0
  0
CIRCLE
  5
1C2
  8
0
  6
CONTINUOUS
 62
     7
 10
7.8265683808
 20
12.0283852803
 30
0.0
 40
0.0698707133429536
  0
LINE
  5
1C3
  8
0
  6
CONTINUOUS
 62
     7
 10
7.8146952348
 20
12.076962239
 30
0.0
 11
7.8146952348
 21
12.040602239
 31
0.0
  0
LINE
  5
1C4
  8
0
  6
CONTINUOUS
 62
     7
 10
7.8146952348
 20
12.040602239
 30
0.0
 11
7.7780652348
 21
12.040602239
 31
0.0
  0
LINE
  5
1C5
  8
0
  6
CONTINUOUS
 62
     7
 10
7.7780652348
 20
12.040602239
 30
0.0
 11
7.7780652348
 21
12.016362239
 31
0.0
  0
LINE
  5
1C6
  8
0
  6
CONTINUOUS
 62
     7
 10
7.8146952348
 20
12.016362239
 30
0.0
 11
7.8146952348
 21
11.980002239
 31
0.0
  0
LINE
  5
1C7
  8
0
  6
CONTINUOUS
 62
     7
 10
7.8146952348
 20
11.980002239
 30
0.0
 11
7.8391152348
 21
11.980002239
 31
0.0
  0
LINE
  5
1C8
  8
0
  6
CONTINUOUS
 62
     7
 10
7.8391152348
 20
11.980002239
 30
0.0
 11
7.8391152348
 21
12.016362239
 31
0.0
  0
LINE
  5
1C9
  8
0
  6
CONTINUOUS
 62
     7
 10
7.8391152348
 20
12.016362239
 30
0.0
 11
7.8757452348
 21
12.016362239
 31
0.0
  0
LINE
  5
1CA
  8
0
  6
CONTINUOUS
 62
     7
 10
7.8757452348
 20
12.016362239
 30
0.0
 11
7.8757452348
 21
12.040602239
 31
0.0
  0
LINE
  5
1CB
  8
0
  6
CONTINUOUS
 62
     7
 10
7.8757452348
 20
12.040602239
 30
0.0
 11
7.8391152348
 21
12.040602239
 31
0.0
  0
LINE
  5
1CC
  8
0
  6
CONTINUOUS
 62
     7
 10
7.8391152348
 20
12.040602239
 30
0.0
 11
7.8391152348
 21
12.076962239
 31
0.0
  0
CIRCLE
  5
1CD
  8
0
  6
CONTINUOUS
 62
     7
 10
7.826392631
 20
12.0286297848
 30
0.0
 40
0.1063249985653651
  0
LINE
  5
1CE
  8
0
  6
CONTINUOUS
 62
     7
 10
7.8211046543
 20
13.0038400634
 30
0.0
 11
7.8146952348
 21
13.010202239
 31
0.0
  0
LINE
  5
1CF
  8
0
  6
CONTINUOUS
 62
     7
 10
7.8211046543
 20
13.0038400634
 30
0.0
 11
7.7844746543
 21
13.0038400634
 31
0.0
  0
LINE
  5
1D0
  8
0
  6
CONTINUOUS
 62
     7
 10
7.7844746543
 20
13.0038400634
 30
0.0
 11
7.7780652348
 21
13.010202239
 31
0.0
  0
LINE
  5
1D1
  8
0
  6
CONTINUOUS
 62
     7
 10
7.8327058153
 20
12.0342400634
 30
0.0
 11
7.8391152348
 21
12.040602239
 31
0.0
  0
LINE
  5
1D2
  8
0
  6
CONTINUOUS
 62
     7
 10
7.8327058153
 20
12.0342400634
 30
0.0
 11
7.8327058153
 21
12.0706000634
 31
0.0
  0
LINE
  5
1D3
  8
0
  6
CONTINUOUS
 62
     7
 10
7.8693358153
 20
12.0342400634
 30
0.0
 11
7.8757452348
 21
12.040602239
 31
0.0
  0
LINE
  5
1D4
  8
0
  6
CONTINUOUS
 62
     7
 10
7.8693358153
 20
12.0342400634
 30
0.0
 11
7.8327058153
 21
12.0342400634
 31
0.0
  0
LINE
  5
1D5
  8
0
  6
CONTINUOUS
 62
     7
 10
7.8693358153
 20
12.0227244146
 30
0.0
 11
7.8757452348
 21
12.016362239
 31
0.0
  0
LINE
  5
1D6
  8
0
  6
CONTINUOUS
 62
     7
 10
7.8693358153
 20
12.0227244146
 30
0.0
 11
7.8693358153
 21
12.0342400634
 31
0.0
  0
LINE
  5
1D7
  8
0
  6
CONTINUOUS
 62
     7
 10
7.8327058153
 20
12.0227244146
 30
0.0
 11
7.8391152348
 21
12.016362239
 31
0.0
  0
LINE
  5
1D8
  8
0
  6
CONTINUOUS
 62
     7
 10
7.8327058153
 20
12.0227244146
 30
0.0
 11
7.8693358153
 21
12.0227244146
 31
0.0
  0
LINE
  5
1D9
  8
0
  6
CONTINUOUS
 62
     7
 10
7.8327058153
 20
11.9863644146
 30
0.0
 11
7.8391152348
 21
11.980002239
 31
0.0
  0
LINE
  5
1DA
  8
0
  6
CONTINUOUS
 62
     7
 10
7.8327058153
 20
11.9863644146
 30
0.0
 11
7.8327058153
 21
12.0227244146
 31
0.0
  0
LINE
  5
1DB
  8
0
  6
CONTINUOUS
 62
     7
 10
7.8211046543
 20
11.9863644146
 30
0.0
 11
7.8146952348
 21
11.980002239
 31
0.0
  0
LINE
  5
1DC
  8
0
  6
CONTINUOUS
 62
     7
 10
7.8211046543
 20
11.9863644146
 30
0.0
 11
7.8327058153
 21
11.9863644146
 31
0.0
  0
LINE
  5
1DD
  8
0
  6
CONTINUOUS
 62
     7
 10
7.7844746543
 20
12.0342400634
 30
0.0
 11
7.7780652348
 21
12.040602239
 31
0.0
  0
LINE
  5
1DE
  8
0
  6
CONTINUOUS
 62
     7
 10
7.7844746543
 20
12.0342400634
 30
0.0
 11
7.7844746543
 21
12.0227244146
 31
0.0
  0
LINE
  5
1DF
  8
0
  6
CONTINUOUS
 62
     7
 10
7.8211046543
 20
12.0342400634
 30
0.0
 11
7.8146952348
 21
12.040602239
 31
0.0
  0
LINE
  5
1E0
  8
0
  6
CONTINUOUS
 62
     7
 10
7.8211046543
 20
12.0342400634
 30
0.0
 11
7.7844746543
 21
12.0342400634
 31
0.0
  0
LINE
  5
1E1
  8
0
  6
CONTINUOUS
 62
     7
 10
7.8211046543
 20
12.0706000634
 30
0.0
 11
7.8211046543
 21
12.0342400634
 31
0.0
  0
LINE
  5
1E2
  8
0
  6
CONTINUOUS
 62
     7
 10
4.7191558153
 20
12.9559644146
 30
0.0
 11
4.7191558153
 21
12.9923244146
 31
0.0
  0
LINE
  5
1E3
  8
0
  6
CONTINUOUS
 62
     7
 10
4.7191558153
 20
12.9923244146
 30
0.0
 11
4.7255652348
 21
12.985962239
 31
0.0
  0
LINE
  5
1E4
  8
0
  6
CONTINUOUS
 62
     7
 10
4.7255652348
 20
12.949602239
 30
0.0
 11
4.7255652348
 21
12.985962239
 31
0.0
  0
LINE
  5
1E5
  8
0
  6
CONTINUOUS
 62
     7
 10
7.8211046543
 20
13.0402000634
 30
0.0
 11
7.8146952348
 21
13.046562239
 31
0.0
  0
LINE
  5
1E6
  8
0
  6
CONTINUOUS
 62
     7
 10
7.8211046543
 20
13.0402000634
 30
0.0
 11
7.8211046543
 21
13.0038400634
 31
0.0
  0
LINE
  5
1E7
  8
0
  6
CONTINUOUS
 62
     7
 10
7.8327058153
 20
13.0402000634
 30
0.0
 11
7.8391152348
 21
13.046562239
 31
0.0
  0
LINE
  5
1E8
  8
0
  6
CONTINUOUS
 62
     7
 10
7.8327058153
 20
13.0402000634
 30
0.0
 11
7.8211046543
 21
13.0402000634
 31
0.0
  0
LINE
  5
1E9
  8
0
  6
CONTINUOUS
 62
     7
 10
4.6709246543
 20
12.9923244146
 30
0.0
 11
4.6645152348
 21
12.985962239
 31
0.0
  0
LINE
  5
1EA
  8
0
  6
CONTINUOUS
 62
     7
 10
4.6709246543
 20
12.9923244146
 30
0.0
 11
4.7075546543
 21
12.9923244146
 31
0.0
  0
LINE
  5
1EB
  8
0
  6
CONTINUOUS
 62
     7
 10
4.6645152348
 20
12.985962239
 30
0.0
 11
4.7011452348
 21
12.985962239
 31
0.0
  0
LINE
  5
1EC
  8
0
  6
CONTINUOUS
 62
     7
 10
4.6709246543
 20
13.0038400634
 30
0.0
 11
4.6645152348
 21
13.010202239
 31
0.0
  0
LINE
  5
1ED
  8
0
  6
CONTINUOUS
 62
     7
 10
4.6709246543
 20
13.0038400634
 30
0.0
 11
4.6709246543
 21
12.9923244146
 31
0.0
  0
LINE
  5
1EE
  8
0
  6
CONTINUOUS
 62
     7
 10
4.6645152348
 20
13.010202239
 30
0.0
 11
4.6645152348
 21
12.985962239
 31
0.0
  0
LINE
  5
1EF
  8
0
  6
CONTINUOUS
 62
     7
 10
4.7075546543
 20
13.0038400634
 30
0.0
 11
4.7011452348
 21
13.010202239
 31
0.0
  0
LINE
  5
1F0
  8
0
  6
CONTINUOUS
 62
     7
 10
4.7075546543
 20
13.0038400634
 30
0.0
 11
4.6709246543
 21
13.0038400634
 31
0.0
  0
LINE
  5
1F1
  8
0
  6
CONTINUOUS
 62
     7
 10
4.7011452348
 20
13.010202239
 30
0.0
 11
4.6645152348
 21
13.010202239
 31
0.0
  0
LINE
  5
1F2
  8
0
  6
CONTINUOUS
 62
     7
 10
4.7075546543
 20
13.0402000634
 30
0.0
 11
4.7075546543
 21
13.0038400634
 31
0.0
  0
LINE
  5
1F3
  8
0
  6
CONTINUOUS
 62
     7
 10
4.7011452348
 20
13.046562239
 30
0.0
 11
4.7011452348
 21
13.010202239
 31
0.0
  0
LINE
  5
1F4
  8
0
  6
CONTINUOUS
 62
     7
 10
7.8327058153
 20
12.9559644146
 30
0.0
 11
7.8327058153
 21
12.9923244146
 31
0.0
  0
LINE
  5
1F5
  8
0
  6
CONTINUOUS
 62
     7
 10
7.8327058153
 20
12.9923244146
 30
0.0
 11
7.8391152348
 21
12.985962239
 31
0.0
  0
LINE
  5
1F6
  8
0
  6
CONTINUOUS
 62
     7
 10
7.7844746543
 20
12.9923244146
 30
0.0
 11
7.7780652348
 21
12.985962239
 31
0.0
  0
LINE
  5
1F7
  8
0
  6
CONTINUOUS
 62
     7
 10
7.7844746543
 20
12.9923244146
 30
0.0
 11
7.8211046543
 21
12.9923244146
 31
0.0
  0
LINE
  5
1F8
  8
0
  6
CONTINUOUS
 62
     7
 10
7.7844746543
 20
13.0038400634
 30
0.0
 11
7.7844746543
 21
12.9923244146
 31
0.0
  0
LINE
  5
1F9
  8
0
  6
CONTINUOUS
 62
     7
 10
4.7191558153
 20
12.0342400634
 30
0.0
 11
4.7255652348
 21
12.040602239
 31
0.0
  0
LINE
  5
1FA
  8
0
  6
CONTINUOUS
 62
     7
 10
4.7191558153
 20
12.0342400634
 30
0.0
 11
4.7191558153
 21
12.0706000634
 31
0.0
  0
LINE
  5
1FB
  8
0
  6
CONTINUOUS
 62
     7
 10
4.7191558153
 20
12.0706000634
 30
0.0
 11
4.7255652348
 21
12.076962239
 31
0.0
  0
LINE
  5
1FC
  8
0
  6
CONTINUOUS
 62
     7
 10
4.7255652348
 20
12.040602239
 30
0.0
 11
4.7255652348
 21
12.076962239
 31
0.0
  0
LINE
  5
1FD
  8
0
  6
CONTINUOUS
 62
     7
 10
4.7557858153
 20
12.0342400634
 30
0.0
 11
4.7621952348
 21
12.040602239
 31
0.0
  0
LINE
  5
1FE
  8
0
  6
CONTINUOUS
 62
     7
 10
4.7557858153
 20
12.0342400634
 30
0.0
 11
4.7191558153
 21
12.0342400634
 31
0.0
  0
LINE
  5
1FF
  8
0
  6
CONTINUOUS
 62
     7
 10
4.7621952348
 20
12.040602239
 30
0.0
 11
4.7255652348
 21
12.040602239
 31
0.0
  0
LINE
  5
200
  8
0
  6
CONTINUOUS
 62
     7
 10
4.7557858153
 20
12.0227244146
 30
0.0
 11
4.7621952348
 21
12.016362239
 31
0.0
  0
LINE
  5
201
  8
0
  6
CONTINUOUS
 62
     7
 10
4.7557858153
 20
12.0227244146
 30
0.0
 11
4.7557858153
 21
12.0342400634
 31
0.0
  0
LINE
  5
202
  8
0
  6
CONTINUOUS
 62
     7
 10
4.7621952348
 20
12.016362239
 30
0.0
 11
4.7621952348
 21
12.040602239
 31
0.0
  0
LINE
  5
203
  8
0
  6
CONTINUOUS
 62
     7
 10
7.8327058153
 20
13.0038400634
 30
0.0
 11
7.8391152348
 21
13.010202239
 31
0.0
  0
LINE
  5
204
  8
0
  6
CONTINUOUS
 62
     7
 10
7.8327058153
 20
13.0038400634
 30
0.0
 11
7.8327058153
 21
13.0402000634
 31
0.0
  0
LINE
  5
205
  8
0
  6
CONTINUOUS
 62
     7
 10
7.8693358153
 20
13.0038400634
 30
0.0
 11
7.8757452348
 21
13.010202239
 31
0.0
  0
LINE
  5
206
  8
0
  6
CONTINUOUS
 62
     7
 10
7.8693358153
 20
13.0038400634
 30
0.0
 11
7.8327058153
 21
13.0038400634
 31
0.0
  0
LINE
  5
207
  8
0
  6
CONTINUOUS
 62
     7
 10
7.8693358153
 20
12.9923244146
 30
0.0
 11
7.8757452348
 21
12.985962239
 31
0.0
  0
LINE
  5
208
  8
0
  6
CONTINUOUS
 62
     7
 10
7.8693358153
 20
12.9923244146
 30
0.0
 11
7.8693358153
 21
13.0038400634
 31
0.0
  0
LINE
  5
209
  8
0
  6
CONTINUOUS
 62
     7
 10
7.8327058153
 20
12.9923244146
 30
0.0
 11
7.8693358153
 21
12.9923244146
 31
0.0
  0
LINE
  5
20A
  8
0
  6
CONTINUOUS
 62
     7
 10
7.8211046543
 20
12.0227244146
 30
0.0
 11
7.8211046543
 21
11.9863644146
 31
0.0
  0
LINE
  5
20B
  8
0
  6
CONTINUOUS
 62
     7
 10
4.7075546543
 20
12.0706000634
 30
0.0
 11
4.7011452348
 21
12.076962239
 31
0.0
  0
LINE
  5
20C
  8
0
  6
CONTINUOUS
 62
     7
 10
4.7075546543
 20
12.0706000634
 30
0.0
 11
4.7075546543
 21
12.0342400634
 31
0.0
  0
LINE
  5
20D
  8
0
  6
CONTINUOUS
 62
     7
 10
4.7075546543
 20
12.0342400634
 30
0.0
 11
4.7011452348
 21
12.040602239
 31
0.0
  0
LINE
  5
20E
  8
0
  6
CONTINUOUS
 62
     7
 10
4.7011452348
 20
12.076962239
 30
0.0
 11
4.7011452348
 21
12.040602239
 31
0.0
  0
LINE
  5
20F
  8
0
  6
CONTINUOUS
 62
     7
 10
4.7075546543
 20
12.0342400634
 30
0.0
 11
4.6709246543
 21
12.0342400634
 31
0.0
  0
LINE
  5
210
  8
0
  6
CONTINUOUS
 62
     7
 10
4.6709246543
 20
12.0342400634
 30
0.0
 11
4.6645152348
 21
12.040602239
 31
0.0
  0
LINE
  5
211
  8
0
  6
CONTINUOUS
 62
     7
 10
4.7011452348
 20
12.040602239
 30
0.0
 11
4.6645152348
 21
12.040602239
 31
0.0
  0
LINE
  5
212
  8
0
  6
CONTINUOUS
 62
     7
 10
4.7557858153
 20
13.0038400634
 30
0.0
 11
4.7621952348
 21
13.010202239
 31
0.0
  0
LINE
  5
213
  8
0
  6
CONTINUOUS
 62
     7
 10
4.7557858153
 20
13.0038400634
 30
0.0
 11
4.7191558153
 21
13.0038400634
 31
0.0
  0
LINE
  5
214
  8
0
  6
CONTINUOUS
 62
     7
 10
4.7191558153
 20
13.0038400634
 30
0.0
 11
4.7255652348
 21
13.010202239
 31
0.0
  0
LINE
  5
215
  8
0
  6
CONTINUOUS
 62
     7
 10
4.7621952348
 20
13.010202239
 30
0.0
 11
4.7255652348
 21
13.010202239
 31
0.0
  0
LINE
  5
216
  8
0
  6
CONTINUOUS
 62
     7
 10
4.7557858153
 20
12.9923244146
 30
0.0
 11
4.7621952348
 21
12.985962239
 31
0.0
  0
LINE
  5
217
  8
0
  6
CONTINUOUS
 62
     7
 10
4.7557858153
 20
12.9923244146
 30
0.0
 11
4.7557858153
 21
13.0038400634
 31
0.0
  0
LINE
  5
218
  8
0
  6
CONTINUOUS
 62
     7
 10
4.7621952348
 20
12.985962239
 30
0.0
 11
4.7621952348
 21
13.010202239
 31
0.0
  0
LINE
  5
219
  8
0
  6
CONTINUOUS
 62
     7
 10
4.7191558153
 20
12.9923244146
 30
0.0
 11
4.7557858153
 21
12.9923244146
 31
0.0
  0
LINE
  5
21A
  8
0
  6
CONTINUOUS
 62
     7
 10
4.7255652348
 20
12.985962239
 30
0.0
 11
4.7621952348
 21
12.985962239
 31
0.0
  0
LINE
  5
21B
  8
0
  6
CONTINUOUS
 62
     7
 10
4.7191558153
 20
12.0227244146
 30
0.0
 11
4.7255652348
 21
12.016362239
 31
0.0
  0
LINE
  5
21C
  8
0
  6
CONTINUOUS
 62
     7
 10
4.7191558153
 20
12.0227244146
 30
0.0
 11
4.7557858153
 21
12.0227244146
 31
0.0
  0
LINE
  5
21D
  8
0
  6
CONTINUOUS
 62
     7
 10
4.7255652348
 20
12.016362239
 30
0.0
 11
4.7621952348
 21
12.016362239
 31
0.0
  0
LINE
  5
21E
  8
0
  6
CONTINUOUS
 62
     7
 10
4.7191558153
 20
11.9863644146
 30
0.0
 11
4.7255652348
 21
11.980002239
 31
0.0
  0
LINE
  5
21F
  8
0
  6
CONTINUOUS
 62
     7
 10
4.7191558153
 20
11.9863644146
 30
0.0
 11
4.7191558153
 21
12.0227244146
 31
0.0
  0
LINE
  5
220
  8
0
  6
CONTINUOUS
 62
     7
 10
4.7255652348
 20
11.980002239
 30
0.0
 11
4.7255652348
 21
12.016362239
 31
0.0
  0
LINE
  5
221
  8
0
  6
CONTINUOUS
 62
     7
 10
4.7075546543
 20
11.9863644146
 30
0.0
 11
4.7011452348
 21
11.980002239
 31
0.0
  0
LINE
  5
222
  8
0
  6
CONTINUOUS
 62
     7
 10
4.7075546543
 20
11.9863644146
 30
0.0
 11
4.7191558153
 21
11.9863644146
 31
0.0
  0
LINE
  5
223
  8
0
  6
CONTINUOUS
 62
     7
 10
4.7011452348
 20
11.980002239
 30
0.0
 11
4.7255652348
 21
11.980002239
 31
0.0
  0
LINE
  5
224
  8
0
  6
CONTINUOUS
 62
     7
 10
4.6645152348
 20
12.040602239
 30
0.0
 11
4.6645152348
 21
12.016362239
 31
0.0
  0
LINE
  5
225
  8
0
  6
CONTINUOUS
 62
     7
 10
4.6645152348
 20
12.016362239
 30
0.0
 11
4.7011452348
 21
12.016362239
 31
0.0
  0
LINE
  5
226
  8
0
  6
CONTINUOUS
 62
     7
 10
4.7011452348
 20
12.016362239
 30
0.0
 11
4.7011452348
 21
11.980002239
 31
0.0
  0
LINE
  5
227
  8
0
  6
CONTINUOUS
 62
     7
 10
4.7255652348
 20
12.076962239
 30
0.0
 11
4.7011452348
 21
12.076962239
 31
0.0
  0
LINE
  5
228
  8
0
  6
CONTINUOUS
 62
     7
 10
4.6709246543
 20
12.0227244146
 30
0.0
 11
4.6645152348
 21
12.016362239
 31
0.0
  0
LINE
  5
229
  8
0
  6
CONTINUOUS
 62
     7
 10
4.6709246543
 20
12.0227244146
 30
0.0
 11
4.7075546543
 21
12.0227244146
 31
0.0
  0
LINE
  5
22A
  8
0
  6
CONTINUOUS
 62
     7
 10
4.7075546543
 20
12.0227244146
 30
0.0
 11
4.7011452348
 21
12.016362239
 31
0.0
  0
LINE
  5
22B
  8
0
  6
CONTINUOUS
 62
     7
 10
4.7255652348
 20
13.010202239
 30
0.0
 11
4.7255652348
 21
13.046562239
 31
0.0
  0
LINE
  5
22C
  8
0
  6
CONTINUOUS
 62
     7
 10
4.7191558153
 20
12.0706000634
 30
0.0
 11
4.7075546543
 21
12.0706000634
 31
0.0
  0
LINE
  5
22D
  8
0
  6
CONTINUOUS
 62
     7
 10
4.7191558153
 20
13.0038400634
 30
0.0
 11
4.7191558153
 21
13.0402000634
 31
0.0
  0
LINE
  5
22E
  8
0
  6
CONTINUOUS
 62
     7
 10
4.7075546543
 20
12.0227244146
 30
0.0
 11
4.7075546543
 21
11.9863644146
 31
0.0
  0
LINE
  5
22F
  8
0
  6
CONTINUOUS
 62
     7
 10
4.6709246543
 20
12.0342400634
 30
0.0
 11
4.6709246543
 21
12.0227244146
 31
0.0
  0
LINE
  5
230
  8
0
  6
CONTINUOUS
 62
     7
 10
5.5944091819
 20
12.5090370117
 30
0.0
 11
5.5944091819
 21
12.3472764185
 31
0.0
  0
LINE
  5
231
  8
0
  6
CONTINUOUS
 62
     7
 10
5.7465068485
 20
12.5090370117
 30
0.0
 11
5.5944091819
 21
12.5090370117
 31
0.0
  0
LINE
  5
232
  8
0
  6
CONTINUOUS
 62
     7
 10
5.5944091819
 20
12.3472764185
 30
0.0
 11
5.7465068485
 21
12.3472764185
 31
0.0
  0
LINE
  5
233
  8
0
  6
CONTINUOUS
 62
     7
 10
5.7465068485
 20
12.3472764185
 30
0.0
 11
5.7465068485
 21
12.5090370117
 31
0.0
  0
CIRCLE
  5
234
  8
0
  6
CONTINUOUS
 62
     7
 10
7.4797604434
 20
12.4065166335
 30
0.0
 40
0.0789842846485558
  0
CIRCLE
  5
235
  8
0
  6
CONTINUOUS
 62
     7
 10
7.4795846935
 20
12.4064660464
 30
0.0
 40
0.1154385698709673
  0
LINE
  5
236
  8
0
  6
CONTINUOUS
 62
     7
 10
4.6584102348
 20
11.895162239
 30
0.0
 11
7.8818502348
 21
11.895162239
 31
0.0
  0
ARC
  5
237
  8
0
  6
CONTINUOUS
 62
     7
 10
4.6582016949
 20
11.9572248548
 30
0.0
 40
0.0620629661684528
 50
180.2313661095
 51
270.1925218179
  0
LINE
  5
238
  8
0
  6
CONTINUOUS
 62
     7
 10
4.5961392348
 20
12.1029162658
 30
0.0
 11
4.5961392348
 21
11.956974239
 31
0.0
  0
LINE
  5
239
  8
0
  6
CONTINUOUS
 62
     7
 10
4.6205592348
 20
12.1271562658
 30
0.0
 11
4.5961392348
 21
12.1029162658
 31
0.0
  0
LINE
  5
23A
  8
0
  6
CONTINUOUS
 62
     7
 10
4.6205592348
 20
12.8897122122
 30
0.0
 11
4.6205592348
 21
12.1271562658
 31
0.0
  0
LINE
  5
23B
  8
0
  6
CONTINUOUS
 62
     7
 10
4.5961392348
 20
12.9139522122
 30
0.0
 11
4.6205592348
 21
12.8897122122
 31
0.0
  0
LINE
  5
23C
  8
0
  6
CONTINUOUS
 62
     7
 10
4.5961392348
 20
13.059894239
 30
0.0
 11
4.5961392348
 21
12.9139522122
 31
0.0
  0
ARC
  5
23D
  8
0
  6
CONTINUOUS
 62
     7
 10
4.6581614663
 20
13.0596841506
 30
0.0
 40
0.0620225873003601
 50
89.7701897831
 51
179.8059222896
  0
LINE
  5
23E
  8
0
  6
CONTINUOUS
 62
     7
 10
4.9397459895
 20
13.121706239
 30
0.0
 11
4.6584102348
 21
13.121706239
 31
0.0
  0
LINE
  5
23F
  8
0
  6
CONTINUOUS
 62
     7
 10
4.9641659895
 20
13.097466239
 30
0.0
 11
4.9397459895
 21
13.121706239
 31
0.0
  0
LINE
  5
240
  8
0
  6
CONTINUOUS
 62
     7
 10
7.57609448
 20
13.097466239
 30
0.0
 11
4.9641659895
 21
13.097466239
 31
0.0
  0
LINE
  5
241
  8
0
  6
CONTINUOUS
 62
     7
 10
7.60051448
 20
13.121706239
 30
0.0
 11
7.57609448
 21
13.097466239
 31
0.0
  0
LINE
  5
242
  8
0
  6
CONTINUOUS
 62
     7
 10
7.8818502348
 20
13.121706239
 30
0.0
 11
7.60051448
 21
13.121706239
 31
0.0
  0
ARC
  5
243
  8
0
  6
CONTINUOUS
 62
     7
 10
7.8820587746
 20
13.0596436232
 30
0.0
 40
0.0620629661684599
 50
0.2313661095
 51
90.1925218179
  0
LINE
  5
244
  8
0
  6
CONTINUOUS
 62
     7
 10
7.9441212348
 20
12.9139522122
 30
0.0
 11
7.9441212348
 21
13.059894239
 31
0.0
  0
LINE
  5
245
  8
0
  6
CONTINUOUS
 62
     7
 10
7.9197012348
 20
12.8897122122
 30
0.0
 11
7.9441212348
 21
12.9139522122
 31
0.0
  0
LINE
  5
246
  8
0
  6
CONTINUOUS
 62
     7
 10
7.9197012348
 20
12.1271562658
 30
0.0
 11
7.9197012348
 21
12.8897122122
 31
0.0
  0
LINE
  5
247
  8
0
  6
CONTINUOUS
 62
     7
 10
7.9441212348
 20
12.1029162658
 30
0.0
 11
7.9197012348
 21
12.1271562658
 31
0.0
  0
LINE
  5
248
  8
0
  6
CONTINUOUS
 62
     7
 10
7.9441212348
 20
11.956974239
 30
0.0
 11
7.9441212348
 21
12.1029162658
 31
0.0
  0
ARC
  5
249
  8
0
  6
CONTINUOUS
 62
     7
 10
7.8820990033
 20
11.9571843274
 30
0.0
 40
0.0620225873003607
 50
269.7701897831
 51
359.8059222896
  0
CIRCLE
  5
24A
  8
0
  6
CONTINUOUS
 62
     7
 10
7.4794675269
 20
12.4064323217
 30
0.0
 40
0.1397414266859125
  0
CIRCLE
  5
24B
  8
0
  6
CONTINUOUS
 62
     7
 10
7.0332904572
 20
12.6221450421
 30
0.0
 40
0.2430143194802835
  0
CIRCLE
  5
24C
  8
0
  6
CONTINUOUS
 62
     7
 10
6.3129004572
 20
12.6221450421
 30
0.0
 40
0.2430143194802835
  0
CIRCLE
  5
24D
  8
0
  6
CONTINUOUS
 62
     7
 10
5.1199834572
 20
12.6221450421
 30
0.0
 40
0.2430143194802818
  0
LINE
  5
24E
  8
0
  6
CONTINUOUS
 62
     7
 10
5.4752592348
 20
12.337542239
 30
0.0
 11
5.9026092348
 21
12.337542239
 31
0.0
  0
LINE
  5
24F
  8
0
  6
CONTINUOUS
 62
     7
 10
5.9026092348
 20
12.337542239
 30
0.0
 11
5.9026092348
 21
12.519342239
 31
0.0
  0
LINE
  5
250
  8
0
  6
CONTINUOUS
 62
     7
 10
5.9026092348
 20
12.519342239
 30
0.0
 11
5.4752592348
 21
12.519342239
 31
0.0
  0
LINE
  5
251
  8
0
  6
CONTINUOUS
 62
     7
 10
5.4752592348
 20
12.519342239
 30
0.0
 11
5.4752592348
 21
12.337542239
 31
0.0
  0
ARC
  5
252
  8
0
  6
CONTINUOUS
 62
     7
 10
7.9711002348
 20
12.0271855693
 30
0.0
 40
0.0282000000000018
 50
196.9219535912
 51
270.0
  0
LINE
  5
253
  8
0
  6
CONTINUOUS
 62
     7
 10
8.4906576246
 20
11.9989855693
 30
0.0
 11
7.9711002348
 21
11.9989855693
 31
0.0
  0
ARC
  5
254
  8
0
  6
CONTINUOUS
 62
     7
 10
8.4906576246
 20
11.9707855693
 30
0.0
 40
0.0282
 50
0.0
 51
90.0
  0
LINE
  5
255
  8
0
  6
CONTINUOUS
 62
     7
 10
8.5188576246
 20
11.9705801616
 30
0.0
 11
8.5188576246
 21
11.9707855693
 31
0.0
  0
ARC
  5
256
  8
0
  6
CONTINUOUS
 62
     7
 10
8.4906576246
 20
11.9705801616
 30
0.0
 40
0.0282
 50
270.0
 51
0.0
  0
LINE
  5
257
  8
0
  6
CONTINUOUS
 62
     7
 10
7.9600527823
 20
11.9423801616
 30
0.0
 11
8.4906576246
 21
11.9423801616
 31
0.0
  0
ARC
  5
258
  8
0
  6
CONTINUOUS
 62
     7
 10
7.9600527823
 20
11.9141801616
 30
0.0
 40
0.0282000000000002
 50
90.0
 51
137.0477456539
  0
ARC
  5
259
  8
0
  6
CONTINUOUS
 62
     7
 10
4.049602845
 20
11.9707855693
 30
0.0
 40
0.0281999999999991
 50
90.0
 51
180.0
  0
LINE
  5
25A
  8
0
  6
CONTINUOUS
 62
     7
 10
4.5691602348
 20
11.9989855693
 30
0.0
 11
4.049602845
 21
11.9989855693
 31
0.0
  0
ARC
  5
25B
  8
0
  6
CONTINUOUS
 62
     7
 10
4.5691602348
 20
12.0271855693
 30
0.0
 40
0.0282000000000018
 50
270.0
 51
343.0780464088
  0
ARC
  5
25C
  8
0
  6
CONTINUOUS
 62
     7
 10
4.5802076872
 20
11.9141801616
 30
0.0
 40
0.0282000000000004
 50
42.9522543461
 51
90.0
  0
LINE
  5
25D
  8
0
  6
CONTINUOUS
 62
     7
 10
4.049602845
 20
11.9423801616
 30
0.0
 11
4.5802076872
 21
11.9423801616
 31
0.0
  0
ARC
  5
25E
  8
0
  6
CONTINUOUS
 62
     7
 10
4.049602845
 20
11.9705801616
 30
0.0
 40
0.0282
 50
180.0
 51
270.0
  0
LINE
  5
25F
  8
0
  6
CONTINUOUS
 62
     7
 10
4.021402845
 20
11.9707855693
 30
0.0
 11
4.021402845
 21
11.9705801616
 31
0.0
  0
ARC
  5
260
  8
0
  6
CONTINUOUS
 62
     7
 10
4.0273392348
 20
13.0313284354
 30
0.0
 40
0.0282
 50
90.0
 51
180.0
  0
LINE
  5
261
  8
0
  6
CONTINUOUS
 62
     7
 10
4.5736579111
 20
13.0595284354
 30
0.0
 11
4.0273392348
 21
13.0595284354
 31
0.0
  0
ARC
  5
262
  8
0
  6
CONTINUOUS
 62
     7
 10
4.5736579111
 20
13.0877284354
 30
0.0
 40
0.0282000000000018
 50
270.0
 51
341.6466369561
  0
ARC
  5
263
  8
0
  6
CONTINUOUS
 62
     7
 10
4.5691602348
 20
12.9747230276
 30
0.0
 40
0.0282
 50
16.9219535912
 51
90.0
  0
ARC
  5
264
  8
0
  6
CONTINUOUS
 62
     7
 10
4.0273392348
 20
13.0311230276
 30
0.0
 40
0.0282
 50
180.0
 51
270.0
  0
LINE
  5
265
  8
0
  6
CONTINUOUS
 62
     7
 10
4.0273392348
 20
13.0029230276
 30
0.0
 11
4.5691602348
 21
13.0029230276
 31
0.0
  0
LINE
  5
266
  8
0
  6
CONTINUOUS
 62
     7
 10
3.9991392348
 20
13.0313284354
 30
0.0
 11
3.9991392348
 21
13.0311230276
 31
0.0
  0
ARC
  5
267
  8
0
  6
CONTINUOUS
 62
     7
 10
4.0828472683
 20
12.9181176199
 30
0.0
 40
0.0282
 50
90.0
 51
180.0
  0
ARC
  5
268
  8
0
  6
CONTINUOUS
 62
     7
 10
4.5691602348
 20
12.9745176199
 30
0.0
 40
0.0281999999999994
 50
270.0
 51
343.0780464089
  0
ARC
  5
269
  8
0
  6
CONTINUOUS
 62
     7
 10
4.5935802348
 20
12.8615122122
 30
0.0
 40
0.0282
 50
16.9219535912
 51
90.0
  0
ARC
  5
26A
  8
0
  6
CONTINUOUS
 62
     7
 10
4.0828472683
 20
12.9179122122
 30
0.0
 40
0.0282000000000018
 50
180.0
 51
270.0
  0
LINE
  5
26B
  8
0
  6
CONTINUOUS
 62
     7
 10
4.0546472683
 20
12.9181176199
 30
0.0
 11
4.0546472683
 21
12.9179122122
 31
0.0
  0
LINE
  5
26C
  8
0
  6
CONTINUOUS
 62
     7
 10
4.0828472683
 20
12.8897122122
 30
0.0
 11
4.5935802348
 21
12.8897122122
 31
0.0
  0
LINE
  5
26D
  8
0
  6
CONTINUOUS
 62
     7
 10
4.5691602348
 20
12.9463176199
 30
0.0
 11
4.0828472683
 21
12.9463176199
 31
0.0
  0
LINE
  5
26E
  8
0
  6
CONTINUOUS
 62
     7
 10
5.8781302348
 20
13.100674239
 30
0.0
 11
5.8781302348
 21
13.097466239
 31
0.0
  0
LINE
  5
26F
  8
0
  6
CONTINUOUS
 62
     7
 10
5.5253202348
 20
13.138674239
 30
0.0
 11
5.4838062348
 21
13.097466239
 31
0.0
  0
LINE
  5
270
  8
0
  6
CONTINUOUS
 62
     7
 10
5.9151302348
 20
13.100674239
 30
0.0
 11
5.8781302348
 21
13.100674239
 31
0.0
  0
LINE
  5
271
  8
0
  6
CONTINUOUS
 62
     7
 10
5.9151302348
 20
13.138674239
 30
0.0
 11
5.9151302348
 21
13.100674239
 31
0.0
  0
LINE
  5
272
  8
0
  6
CONTINUOUS
 62
     7
 10
5.9151302348
 20
13.138674239
 30
0.0
 11
5.5253202348
 21
13.138674239
 31
0.0
  0
LINE
  5
273
  8
0
  6
CONTINUOUS
 62
     7
 10
6.6251302348
 20
13.100674239
 30
0.0
 11
6.6251302348
 21
13.138674239
 31
0.0
  0
LINE
  5
274
  8
0
  6
CONTINUOUS
 62
     7
 10
6.6621302348
 20
13.097466239
 30
0.0
 11
6.6621302348
 21
13.100674239
 31
0.0
  0
LINE
  5
275
  8
0
  6
CONTINUOUS
 62
     7
 10
6.6621302348
 20
13.100674239
 30
0.0
 11
6.6251302348
 21
13.100674239
 31
0.0
  0
LINE
  5
276
  8
0
  6
CONTINUOUS
 62
     7
 10
7.0149402348
 20
13.138674239
 30
0.0
 11
6.6251302348
 21
13.138674239
 31
0.0
  0
LINE
  5
277
  8
0
  6
CONTINUOUS
 62
     7
 10
7.0564542348
 20
13.097466239
 30
0.0
 11
7.0149402348
 21
13.138674239
 31
0.0
  0
LINE
  5
278
  8
0
  6
CONTINUOUS
 62
     7
 10
4.5709292348
 20
12.1121963848
 30
0.0
 11
4.0994744559
 21
12.1121963848
 31
0.0
  0
ARC
  5
279
  8
0
  6
CONTINUOUS
 62
     7
 10
4.5709292348
 20
12.1403963848
 30
0.0
 40
0.0282000000000009
 50
270.0
 51
0.0
  0
LINE
  5
27A
  8
0
  6
CONTINUOUS
 62
     7
 10
4.5991292348
 20
12.1406017926
 30
0.0
 11
4.5991292348
 21
12.1403963848
 31
0.0
  0
ARC
  5
27B
  8
0
  6
CONTINUOUS
 62
     7
 10
4.5709292348
 20
12.1406017926
 30
0.0
 40
0.0282000000000009
 50
0.0
 51
90.0
  0
LINE
  5
27C
  8
0
  6
CONTINUOUS
 62
     7
 10
4.1353801259
 20
12.1688017926
 30
0.0
 11
4.5709292348
 21
12.1688017926
 31
0.0
  0
LINE
  5
27D
  8
0
  6
CONTINUOUS
 62
     7
 10
4.1071801259
 20
12.1972072003
 30
0.0
 11
4.1071801259
 21
12.1970017926
 31
0.0
  0
LINE
  5
27E
  8
0
  6
CONTINUOUS
 62
     7
 10
4.5709292348
 20
12.2254072003
 30
0.0
 11
4.1353801259
 21
12.2254072003
 31
0.0
  0
ARC
  5
27F
  8
0
  6
CONTINUOUS
 62
     7
 10
4.5709292348
 20
12.2536072003
 30
0.0
 40
0.0282000000000018
 50
270.0
 51
0.0
  0
LINE
  5
280
  8
0
  6
CONTINUOUS
 62
     7
 10
4.5991292348
 20
12.253812608
 30
0.0
 11
4.5991292348
 21
12.2536072003
 31
0.0
  0
ARC
  5
281
  8
0
  6
CONTINUOUS
 62
     7
 10
4.5709292348
 20
12.253812608
 30
0.0
 40
0.0282000000000009
 50
0.0
 51
90.0
  0
LINE
  5
282
  8
0
  6
CONTINUOUS
 62
     7
 10
4.1586733957
 20
12.282012608
 30
0.0
 11
4.5709292348
 21
12.282012608
 31
0.0
  0
LINE
  5
283
  8
0
  6
CONTINUOUS
 62
     7
 10
4.1304733957
 20
12.3104180158
 30
0.0
 11
4.1304733957
 21
12.310212608
 31
0.0
  0
LINE
  5
284
  8
0
  6
CONTINUOUS
 62
     7
 10
4.5709292348
 20
12.3386180158
 30
0.0
 11
4.1586733957
 21
12.3386180158
 31
0.0
  0
ARC
  5
285
  8
0
  6
CONTINUOUS
 62
     7
 10
4.5709292348
 20
12.3668180158
 30
0.0
 40
0.0282000000000009
 50
270.0
 51
0.0
  0
ARC
  5
286
  8
0
  6
CONTINUOUS
 62
     7
 10
4.5709292348
 20
12.3670234235
 30
0.0
 40
0.0282000000000009
 50
0.0
 51
90.0
  0
ARC
  5
287
  8
0
  6
CONTINUOUS
 62
     7
 10
4.5709292348
 20
12.4800288313
 30
0.0
 40
0.0282000000000009
 50
270.0
 51
0.0
  0
ARC
  5
288
  8
0
  6
CONTINUOUS
 62
     7
 10
4.5709292348
 20
12.480234239
 30
0.0
 40
0.0282000000000009
 50
0.0
 51
90.0
  0
LINE
  5
289
  8
0
  6
CONTINUOUS
 62
     7
 10
4.5935802348
 20
12.5650396467
 30
0.0
 11
4.170138957
 21
12.5650396467
 31
0.0
  0
ARC
  5
28A
  8
0
  6
CONTINUOUS
 62
     7
 10
4.5935802348
 20
12.5932396467
 30
0.0
 40
0.0282000000000008
 50
270.0
 51
343.0780464088
  0
ARC
  5
28B
  8
0
  6
CONTINUOUS
 62
     7
 10
4.5691602348
 20
12.0273909771
 30
0.0
 40
0.0282000000000018
 50
16.9219535912
 51
90.0
  0
LINE
  5
28C
  8
0
  6
CONTINUOUS
 62
     7
 10
4.0994744559
 20
12.0555909771
 30
0.0
 11
4.5691602348
 21
12.0555909771
 31
0.0
  0
LINE
  5
28D
  8
0
  6
CONTINUOUS
 62
     7
 10
4.0712744559
 20
12.0839963848
 30
0.0
 11
4.0712744559
 21
12.0837909771
 31
0.0
  0
LINE
  5
28E
  8
0
  6
CONTINUOUS
 62
     7
 10
4.5991292348
 20
12.3670234235
 30
0.0
 11
4.5991292348
 21
12.3668180158
 31
0.0
  0
LINE
  5
28F
  8
0
  6
CONTINUOUS
 62
     7
 10
4.170138957
 20
12.3952234235
 30
0.0
 11
4.5709292348
 21
12.3952234235
 31
0.0
  0
LINE
  5
290
  8
0
  6
CONTINUOUS
 62
     7
 10
4.141938957
 20
12.4236288313
 30
0.0
 11
4.141938957
 21
12.4234234235
 31
0.0
  0
LINE
  5
291
  8
0
  6
CONTINUOUS
 62
     7
 10
4.5709292348
 20
12.4518288313
 30
0.0
 11
4.170138957
 21
12.4518288313
 31
0.0
  0
LINE
  5
292
  8
0
  6
CONTINUOUS
 62
     7
 10
4.5991292348
 20
12.480234239
 30
0.0
 11
4.5991292348
 21
12.4800288313
 31
0.0
  0
LINE
  5
293
  8
0
  6
CONTINUOUS
 62
     7
 10
4.170138957
 20
12.508434239
 30
0.0
 11
4.5709292348
 21
12.508434239
 31
0.0
  0
LINE
  5
294
  8
0
  6
CONTINUOUS
 62
     7
 10
4.141938957
 20
12.5368396467
 30
0.0
 11
4.141938957
 21
12.536634239
 31
0.0
  0
ARC
  5
295
  8
0
  6
CONTINUOUS
 62
     7
 10
4.170138957
 20
12.5368396467
 30
0.0
 40
0.0282
 50
90.0
 51
180.0
  0
ARC
  5
296
  8
0
  6
CONTINUOUS
 62
     7
 10
4.170138957
 20
12.4234234235
 30
0.0
 40
0.0282000000000018
 50
180.0
 51
270.0
  0
ARC
  5
297
  8
0
  6
CONTINUOUS
 62
     7
 10
4.1586733957
 20
12.3104180158
 30
0.0
 40
0.0282
 50
90.0
 51
180.0
  0
ARC
  5
298
  8
0
  6
CONTINUOUS
 62
     7
 10
4.170138957
 20
12.4236288313
 30
0.0
 40
0.0282000000000018
 50
90.0
 51
180.0
  0
ARC
  5
299
  8
0
  6
CONTINUOUS
 62
     7
 10
4.170138957
 20
12.536634239
 30
0.0
 40
0.0282
 50
180.0
 51
270.0
  0
ARC
  5
29A
  8
0
  6
CONTINUOUS
 62
     7
 10
4.1586733957
 20
12.310212608
 30
0.0
 40
0.0282
 50
180.0
 51
270.0
  0
ARC
  5
29B
  8
0
  6
CONTINUOUS
 62
     7
 10
4.1353801259
 20
12.1970017926
 30
0.0
 40
0.0282000000000018
 50
180.0
 51
270.0
  0
ARC
  5
29C
  8
0
  6
CONTINUOUS
 62
     7
 10
4.1353801259
 20
12.1972072003
 30
0.0
 40
0.0282
 50
90.0
 51
180.0
  0
ARC
  5
29D
  8
0
  6
CONTINUOUS
 62
     7
 10
4.0994744559
 20
12.0837909771
 30
0.0
 40
0.0282
 50
180.0
 51
270.0
  0
ARC
  5
29E
  8
0
  6
CONTINUOUS
 62
     7
 10
4.0994744559
 20
12.0839963848
 30
0.0
 40
0.0282
 50
90.0
 51
180.0
  0
ARC
  5
29F
  8
0
  6
CONTINUOUS
 62
     7
 10
7.9693312348
 20
12.2536072003
 30
0.0
 40
0.0282000000000018
 50
180.0
 51
270.0
  0
LINE
  5
2A0
  8
0
  6
CONTINUOUS
 62
     7
 10
8.4048803437
 20
12.2254072003
 30
0.0
 11
7.9693312348
 21
12.2254072003
 31
0.0
  0
ARC
  5
2A1
  8
0
  6
CONTINUOUS
 62
     7
 10
8.4048803437
 20
12.1972072003
 30
0.0
 40
0.0282
 50
0.0
 51
90.0
  0
ARC
  5
2A2
  8
0
  6
CONTINUOUS
 62
     7
 10
8.4048803437
 20
12.1970017926
 30
0.0
 40
0.0282000000000018
 50
270.0
 51
0.0
  0
ARC
  5
2A3
  8
0
  6
CONTINUOUS
 62
     7
 10
7.9693312348
 20
12.1406017926
 30
0.0
 40
0.0282000000000009
 50
90.0
 51
180.0
  0
LINE
  5
2A4
  8
0
  6
CONTINUOUS
 62
     7
 10
7.9411312348
 20
12.1403963848
 30
0.0
 11
7.9411312348
 21
12.1406017926
 31
0.0
  0
ARC
  5
2A5
  8
0
  6
CONTINUOUS
 62
     7
 10
7.9693312348
 20
12.1403963848
 30
0.0
 40
0.0282000000000009
 50
180.0
 51
270.0
  0
LINE
  5
2A6
  8
0
  6
CONTINUOUS
 62
     7
 10
8.4407860137
 20
12.1121963848
 30
0.0
 11
7.9693312348
 21
12.1121963848
 31
0.0
  0
ARC
  5
2A7
  8
0
  6
CONTINUOUS
 62
     7
 10
8.4407860137
 20
12.0839963848
 30
0.0
 40
0.0282
 50
0.0
 51
90.0
  0
LINE
  5
2A8
  8
0
  6
CONTINUOUS
 62
     7
 10
8.4689860137
 20
12.0837909771
 30
0.0
 11
8.4689860137
 21
12.0839963848
 31
0.0
  0
ARC
  5
2A9
  8
0
  6
CONTINUOUS
 62
     7
 10
8.4407860137
 20
12.0837909771
 30
0.0
 40
0.0281999999999982
 50
270.0
 51
0.0
  0
ARC
  5
2AA
  8
0
  6
CONTINUOUS
 62
     7
 10
7.9711002348
 20
12.0273909771
 30
0.0
 40
0.0282000000000018
 50
90.0
 51
163.0780464088
  0
ARC
  5
2AB
  8
0
  6
CONTINUOUS
 62
     7
 10
7.9466802348
 20
12.5932396467
 30
0.0
 40
0.0282000000000008
 50
196.9219535912
 51
270.0
  0
ARC
  5
2AC
  8
0
  6
CONTINUOUS
 62
     7
 10
8.3701215126
 20
12.5368396467
 30
0.0
 40
0.0282
 50
0.0
 51
90.0
  0
LINE
  5
2AD
  8
0
  6
CONTINUOUS
 62
     7
 10
7.9693312348
 20
12.508434239
 30
0.0
 11
8.3983215126
 21
12.508434239
 31
0.0
  0
ARC
  5
2AE
  8
0
  6
CONTINUOUS
 62
     7
 10
7.9693312348
 20
12.480234239
 30
0.0
 40
0.0282000000000009
 50
90.0
 51
180.0
  0
LINE
  5
2AF
  8
0
  6
CONTINUOUS
 62
     7
 10
7.9411312348
 20
12.4800288313
 30
0.0
 11
7.9411312348
 21
12.480234239
 31
0.0
  0
ARC
  5
2B0
  8
0
  6
CONTINUOUS
 62
     7
 10
7.9693312348
 20
12.4800288313
 30
0.0
 40
0.0282000000000009
 50
180.0
 51
270.0
  0
LINE
  5
2B1
  8
0
  6
CONTINUOUS
 62
     7
 10
8.3701215126
 20
12.4518288313
 30
0.0
 11
7.9693312348
 21
12.4518288313
 31
0.0
  0
ARC
  5
2B2
  8
0
  6
CONTINUOUS
 62
     7
 10
8.3701215126
 20
12.4236288313
 30
0.0
 40
0.0282000000000018
 50
0.0
 51
90.0
  0
LINE
  5
2B3
  8
0
  6
CONTINUOUS
 62
     7
 10
8.3983215126
 20
12.4234234235
 30
0.0
 11
8.3983215126
 21
12.4236288313
 31
0.0
  0
ARC
  5
2B4
  8
0
  6
CONTINUOUS
 62
     7
 10
8.3701215126
 20
12.4234234235
 30
0.0
 40
0.0282000000000018
 50
270.0
 51
0.0
  0
LINE
  5
2B5
  8
0
  6
CONTINUOUS
 62
     7
 10
7.9693312348
 20
12.3952234235
 30
0.0
 11
8.3701215126
 21
12.3952234235
 31
0.0
  0
LINE
  5
2B6
  8
0
  6
CONTINUOUS
 62
     7
 10
7.9411312348
 20
12.3668180158
 30
0.0
 11
7.9411312348
 21
12.3670234235
 31
0.0
  0
ARC
  5
2B7
  8
0
  6
CONTINUOUS
 62
     7
 10
7.9693312348
 20
12.3668180158
 30
0.0
 40
0.0282000000000009
 50
180.0
 51
270.0
  0
LINE
  5
2B8
  8
0
  6
CONTINUOUS
 62
     7
 10
8.3815870739
 20
12.3386180158
 30
0.0
 11
7.9693312348
 21
12.3386180158
 31
0.0
  0
ARC
  5
2B9
  8
0
  6
CONTINUOUS
 62
     7
 10
8.3815870739
 20
12.3104180158
 30
0.0
 40
0.0282
 50
0.0
 51
90.0
  0
ARC
  5
2BA
  8
0
  6
CONTINUOUS
 62
     7
 10
8.3815870739
 20
12.310212608
 30
0.0
 40
0.0282
 50
270.0
 51
0.0
  0
ARC
  5
2BB
  8
0
  6
CONTINUOUS
 62
     7
 10
7.9693312348
 20
12.253812608
 30
0.0
 40
0.0282000000000009
 50
90.0
 51
180.0
  0
LINE
  5
2BC
  8
0
  6
CONTINUOUS
 62
     7
 10
7.9693312348
 20
12.1688017926
 30
0.0
 11
8.4048803437
 21
12.1688017926
 31
0.0
  0
LINE
  5
2BD
  8
0
  6
CONTINUOUS
 62
     7
 10
7.9411312348
 20
12.2536072003
 30
0.0
 11
7.9411312348
 21
12.253812608
 31
0.0
  0
LINE
  5
2BE
  8
0
  6
CONTINUOUS
 62
     7
 10
7.9693312348
 20
12.282012608
 30
0.0
 11
8.3815870739
 21
12.282012608
 31
0.0
  0
LINE
  5
2BF
  8
0
  6
CONTINUOUS
 62
     7
 10
8.3983215126
 20
12.508434239
 30
0.0
 11
8.3983215126
 21
12.5368396467
 31
0.0
  0
LINE
  5
2C0
  8
0
  6
CONTINUOUS
 62
     7
 10
8.3701215126
 20
12.5650396467
 30
0.0
 11
7.9466802348
 21
12.5650396467
 31
0.0
  0
LINE
  5
2C1
  8
0
  6
CONTINUOUS
 62
     7
 10
7.9711002348
 20
12.0555909771
 30
0.0
 11
8.4407860137
 21
12.0555909771
 31
0.0
  0
ARC
  5
2C2
  8
0
  6
CONTINUOUS
 62
     7
 10
7.9693312348
 20
12.3670234235
 30
0.0
 40
0.0282000000000009
 50
90.0
 51
180.0
  0
LINE
  5
2C3
  8
0
  6
CONTINUOUS
 62
     7
 10
8.4330803437
 20
12.1970017926
 30
0.0
 11
8.4330803437
 21
12.1972072003
 31
0.0
  0
LINE
  5
2C4
  8
0
  6
CONTINUOUS
 62
     7
 10
8.4097870739
 20
12.310212608
 30
0.0
 11
8.4097870739
 21
12.3104180158
 31
0.0
  0
ARC
  5
2C5
  8
0
  6
CONTINUOUS
 62
     7
 10
7.9711002348
 20
12.9745176199
 30
0.0
 40
0.0281999999999986
 50
196.9219535911
 51
270.0
  0
LINE
  5
2C6
  8
0
  6
CONTINUOUS
 62
     7
 10
8.4574132013
 20
12.9463176199
 30
0.0
 11
7.9711002348
 21
12.9463176199
 31
0.0
  0
ARC
  5
2C7
  8
0
  6
CONTINUOUS
 62
     7
 10
8.4574132013
 20
12.9181176199
 30
0.0
 40
0.0282000000000018
 50
0.0
 51
90.0
  0
ARC
  5
2C8
  8
0
  6
CONTINUOUS
 62
     7
 10
8.4574132013
 20
12.9179122122
 30
0.0
 40
0.0282000000000018
 50
270.0
 51
0.0
  0
LINE
  5
2C9
  8
0
  6
CONTINUOUS
 62
     7
 10
7.9466802348
 20
12.8897122122
 30
0.0
 11
8.4574132013
 21
12.8897122122
 31
0.0
  0
LINE
  5
2CA
  8
0
  6
CONTINUOUS
 62
     7
 10
8.4856132013
 20
12.9179122122
 30
0.0
 11
8.4856132013
 21
12.9181176199
 31
0.0
  0
ARC
  5
2CB
  8
0
  6
CONTINUOUS
 62
     7
 10
7.9466802348
 20
12.8615122122
 30
0.0
 40
0.0281999999999991
 50
90.0
 51
163.0780464088
  0
ARC
  5
2CC
  8
0
  6
CONTINUOUS
 62
     7
 10
7.9666025584
 20
13.0877284354
 30
0.0
 40
0.028200000000002
 50
198.3533630439
 51
269.9999999998
  0
LINE
  5
2CD
  8
0
  6
CONTINUOUS
 62
     7
 10
8.5411212348
 20
13.0311230276
 30
0.0
 11
8.5411212348
 21
13.0313284354
 31
0.0
  0
ARC
  5
2CE
  8
0
  6
CONTINUOUS
 62
     7
 10
8.5129212348
 20
13.0311230276
 30
0.0
 40
0.0282
 50
270.0
 51
0.0
  0
LINE
  5
2CF
  8
0
  6
CONTINUOUS
 62
     7
 10
7.9711002348
 20
13.0029230276
 30
0.0
 11
8.5129212348
 21
13.0029230276
 31
0.0
  0
LINE
  5
2D0
  8
0
  6
CONTINUOUS
 62
     7
 10
8.5129212348
 20
13.0595284354
 30
0.0
 11
7.9666025584
 21
13.0595284354
 31
0.0
  0
ARC
  5
2D1
  8
0
  6
CONTINUOUS
 62
     7
 10
7.9711002348
 20
12.9747230276
 30
0.0
 40
0.0282
 50
90.0
 51
163.0780464088
  0
ARC
  5
2D2
  8
0
  6
CONTINUOUS
 62
     7
 10
8.5129212348
 20
13.0313284354
 30
0.0
 40
0.0282
 50
0.0
 51
90.0
  0
LINE
  5
2D3
  8
0
  6
CONTINUOUS
 62
     7
 10
6.5671302348
 20
13.138674239
 30
0.0
 11
5.9731302348
 21
13.138674239
 31
0.0
  0
LINE
  5
2D4
  8
0
  6
CONTINUOUS
 62
     7
 10
6.5671302348
 20
13.138674239
 30
0.0
 11
6.5671302348
 21
13.097466239
 31
0.0
  0
LINE
  5
2D5
  8
0
  6
CONTINUOUS
 62
     7
 10
5.9731302348
 20
13.097466239
 30
0.0
 11
5.9731302348
 21
13.138674239
 31
0.0
  0
LINE
  5
2D6
  8
0
  6
CONTINUOUS
 62
     7
 10
4.5217802348
 20
12.695464239
 30
0.0
 11
4.5217802348
 21
12.762964239
 31
0.0
  0
LINE
  5
2D7
  8
0
  6
CONTINUOUS
 62
     7
 10
4.5917802348
 20
12.832964239
 30
0.0
 11
4.5917802348
 21
12.625464239
 31
0.0
  0
POINT
  5
2D8
  8
0
  6
CONTINUOUS
 62
     7
 10
6.0196828575
 20
11.6538279233
 30
0.0
  0
DIMENSION
  5
2D9
  8
0
  6
CONTINUOUS
 62
     7
  2
*D8
 10
3.4770940921
 20
11.895162239
 30
0.0
 11
3.4770940921
 21
12.7685355255
 31
0.0
 70
   160
  3
SLDDIMSTYLE4
 13
6.0196828575
 23
11.6538279233
 33
0.0
 14
4.6584102348
 24
11.895162239
 34
0.0
 50
90.0
  0
DIMENSION
  5
2E7
  8
0
  6
CONTINUOUS
 62
     7
  2
*D9
 10
9.5876785399
 20
11.895162239
 30
0.0
 11
9.5876785399
 21
12.5502441209
 31
0.0
 70
   160
  3
SLDDIMSTYLE4
 13
7.0149402348
 23
13.138674239
 33
0.0
 14
7.8818502348
 24
11.895162239
 34
0.0
 50
90.0
  0
LINE
  5
2F4
  8
0
  6
CONTINUOUS
 62
     7
 10
17.0137010823
 20
11.3084000893
 30
0.0
 11
17.158628107
 21
11.2267998408
 31
0.0
  0
LINE
  5
2F5
  8
0
  6
CONTINUOUS
 62
     7
 10
17.5019838772
 20
11.5229994216
 30
0.0
 11
17.4529831255
 21
11.5505889862
 31
0.0
  0
LINE
  5
2F6
  8
0
  6
CONTINUOUS
 62
     7
 10
17.4859016884
 20
11.4482733817
 30
0.0
 11
17.5099378585
 21
11.4347399675
 31
0.0
  0
LINE
  5
2F7
  8
0
  6
CONTINUOUS
 62
     7
 10
12.9386517806
 20
13.0814489644
 30
0.0
 11
15.7434306462
 21
11.5022358895
 31
0.0
  0
LINE
  5
2F8
  8
0
  6
CONTINUOUS
 62
     7
 10
12.9786464023
 20
13.0121052599
 30
0.0
 11
15.7834252679
 21
11.4328921849
 31
0.0
  0
POLYLINE
  5
2F9
  8
0
  6
CONTINUOUS
 62
     7
 66
     1
 10
0.0
 20
0.0
 30
0.0
  0
VERTEX
  5
5E4
  8
0
  6
CONTINUOUS
 62
     7
 10
16.2472613909
 20
11.6586433213
 30
0.0
  0
VERTEX
  5
5E5
  8
0
  6
CONTINUOUS
 62
     7
 10
16.2616876999
 20
11.6531027297
 30
0.0
  0
VERTEX
  5
5E6
  8
0
  6
CONTINUOUS
 62
     7
 10
16.2779175335
 20
11.6518537307
 30
0.0
  0
VERTEX
  5
5E7
  8
0
  6
CONTINUOUS
 62
     7
 10
16.2947060692
 20
11.6549451756
 30
0.0
  0
VERTEX
  5
5E8
  8
0
  6
CONTINUOUS
 62
     7
 10
16.3108399061
 20
11.6617428358
 30
0.0
  0
VERTEX
  5
5E9
  8
0
  6
CONTINUOUS
 62
     7
 10
16.3381946646
 20
11.6823926122
 30
0.0
  0
VERTEX
  5
5EA
  8
0
  6
CONTINUOUS
 62
     7
 10
16.3588429113
 20
11.7080339591
 30
0.0
  0
VERTEX
  5
5EB
  8
0
  6
CONTINUOUS
 62
     7
 10
16.372464271
 20
11.7341310721
 30
0.0
  0
VERTEX
  5
5EC
  8
0
  6
CONTINUOUS
 62
     7
 10
16.3804799054
 20
11.760633598
 30
0.0
  0
VERTEX
  5
5ED
  8
0
  6
CONTINUOUS
 62
     7
 10
16.381308813
 20
11.7973634457
 30
0.0
  0
VERTEX
  5
5EE
  8
0
  6
CONTINUOUS
 62
     7
 10
16.3736202337
 20
11.8211105544
 30
0.0
  0
VERTEX
  5
5EF
  8
0
  6
CONTINUOUS
 62
     7
 10
16.3653665659
 20
11.8332560312
 30
0.0
  0
VERTEX
  5
5F0
  8
0
  6
CONTINUOUS
 62
     7
 10
16.3528243161
 20
11.843520044
 30
0.0
  0
SEQEND
  5
5E3
  8
0
  6
CONTINUOUS
 62
     7
  0
LINE
  5
2FA
  8
0
  6
CONTINUOUS
 62
     7
 10
16.2314137998
 20
11.6675656509
 30
0.0
 11
16.2492015907
 21
11.6575503473
 31
0.0
  0
LINE
  5
2FB
  8
0
  6
CONTINUOUS
 62
     7
 10
16.3544416745
 20
11.8426099573
 30
0.0
 11
16.3366538836
 21
11.8526252609
 31
0.0
  0
POLYLINE
  5
2FC
  8
0
  6
CONTINUOUS
 62
     7
 66
     1
 10
0.0
 20
0.0
 30
0.0
  0
VERTEX
  5
5F2
  8
0
  6
CONTINUOUS
 62
     7
 10
16.3385940834
 20
11.8515322869
 30
0.0
  0
VERTEX
  5
5F3
  8
0
  6
CONTINUOUS
 62
     7
 10
16.3241677745
 20
11.8570728785
 30
0.0
  0
VERTEX
  5
5F4
  8
0
  6
CONTINUOUS
 62
     7
 10
16.3079379409
 20
11.8583218775
 30
0.0
  0
VERTEX
  5
5F5
  8
0
  6
CONTINUOUS
 62
     7
 10
16.2911494051
 20
11.8552304326
 30
0.0
  0
VERTEX
  5
5F6
  8
0
  6
CONTINUOUS
 62
     7
 10
16.2750155683
 20
11.8484327723
 30
0.0
  0
VERTEX
  5
5F7
  8
0
  6
CONTINUOUS
 62
     7
 10
16.2476608097
 20
11.827782996
 30
0.0
  0
VERTEX
  5
5F8
  8
0
  6
CONTINUOUS
 62
     7
 10
16.2270125631
 20
11.8021416491
 30
0.0
  0
VERTEX
  5
5F9
  8
0
  6
CONTINUOUS
 62
     7
 10
16.2133912034
 20
11.776044536
 30
0.0
  0
VERTEX
  5
5FA
  8
0
  6
CONTINUOUS
 62
     7
 10
16.205375569
 20
11.7495420102
 30
0.0
  0
VERTEX
  5
5FB
  8
0
  6
CONTINUOUS
 62
     7
 10
16.2045466614
 20
11.7128121625
 30
0.0
  0
VERTEX
  5
5FC
  8
0
  6
CONTINUOUS
 62
     7
 10
16.2122352407
 20
11.6890650538
 30
0.0
  0
VERTEX
  5
5FD
  8
0
  6
CONTINUOUS
 62
     7
 10
16.2204889085
 20
11.6769195769
 30
0.0
  0
VERTEX
  5
5FE
  8
0
  6
CONTINUOUS
 62
     7
 10
16.2330311582
 20
11.6666555642
 30
0.0
  0
SEQEND
  5
5F1
  8
0
  6
CONTINUOUS
 62
     7
  0
LINE
  5
2FD
  8
0
  6
CONTINUOUS
 62
     7
 10
13.0433255317
 20
12.7371224061
 30
0.0
 11
15.8481043973
 21
11.1579093311
 31
0.0
  0
LINE
  5
2FE
  8
0
  6
CONTINUOUS
 62
     7
 10
13.0443191265
 20
12.6446940065
 30
0.0
 11
15.8490979921
 21
11.0654809315
 31
0.0
  0
LINE
  5
2FF
  8
0
  6
CONTINUOUS
 62
     7
 10
13.0372567943
 20
12.5474973064
 30
0.0
 11
15.8420356599
 21
10.9682842314
 31
0.0
  0
LINE
  5
300
  8
0
  6
CONTINUOUS
 62
     7
 10
16.4104803236
 20
11.4636495969
 30
0.0
 11
16.5776855578
 21
11.3695057429
 31
0.0
  0
LINE
  5
301
  8
0
  6
CONTINUOUS
 62
     7
 10
16.7941794445
 20
11.7501997977
 30
0.0
 11
16.6269742103
 21
11.8443436518
 31
0.0
  0
LINE
  5
302
  8
0
  6
CONTINUOUS
 62
     7
 10
13.0218840835
 20
12.4453816958
 30
0.0
 11
15.8266629491
 21
10.8661686209
 31
0.0
  0
LINE
  5
303
  8
0
  6
CONTINUOUS
 62
     7
 10
12.9976496543
 20
12.3380208371
 30
0.0
 11
15.8024285199
 21
10.7588077622
 31
0.0
  0
LINE
  5
304
  8
0
  6
CONTINUOUS
 62
     7
 10
12.9636024826
 20
12.2248518194
 30
0.0
 11
15.7683813482
 21
10.6456387444
 31
0.0
  0
POLYLINE
  5
305
  8
0
  6
CONTINUOUS
 62
     7
 66
     1
 10
0.0
 20
0.0
 30
0.0
  0
VERTEX
  5
600
  8
0
  6
CONTINUOUS
 62
     7
 10
16.255771086
 20
10.8670354183
 30
0.0
  0
VERTEX
  5
601
  8
0
  6
CONTINUOUS
 62
     7
 10
16.270197395
 20
10.8614948267
 30
0.0
  0
VERTEX
  5
602
  8
0
  6
CONTINUOUS
 62
     7
 10
16.2864272286
 20
10.8602458277
 30
0.0
  0
VERTEX
  5
603
  8
0
  6
CONTINUOUS
 62
     7
 10
16.3032157644
 20
10.8633372726
 30
0.0
  0
VERTEX
  5
604
  8
0
  6
CONTINUOUS
 62
     7
 10
16.3193496012
 20
10.8701349328
 30
0.0
  0
VERTEX
  5
605
  8
0
  6
CONTINUOUS
 62
     7
 10
16.3467043597
 20
10.8907847091
 30
0.0
  0
VERTEX
  5
606
  8
0
  6
CONTINUOUS
 62
     7
 10
16.3673526064
 20
10.9164260561
 30
0.0
  0
VERTEX
  5
607
  8
0
  6
CONTINUOUS
 62
     7
 10
16.3809739661
 20
10.9425231691
 30
0.0
  0
VERTEX
  5
608
  8
0
  6
CONTINUOUS
 62
     7
 10
16.3889896005
 20
10.9690256949
 30
0.0
  0
VERTEX
  5
609
  8
0
  6
CONTINUOUS
 62
     7
 10
16.3898185081
 20
11.0057555426
 30
0.0
  0
VERTEX
  5
60A
  8
0
  6
CONTINUOUS
 62
     7
 10
16.3821299288
 20
11.0295026514
 30
0.0
  0
VERTEX
  5
60B
  8
0
  6
CONTINUOUS
 62
     7
 10
16.373876261
 20
11.0416481282
 30
0.0
  0
VERTEX
  5
60C
  8
0
  6
CONTINUOUS
 62
     7
 10
16.3613340113
 20
11.0519121409
 30
0.0
  0
SEQEND
  5
5FF
  8
0
  6
CONTINUOUS
 62
     7
  0
LINE
  5
306
  8
0
  6
CONTINUOUS
 62
     7
 10
16.239923495
 20
10.8759577479
 30
0.0
 11
16.2577112858
 21
10.8659424443
 31
0.0
  0
LINE
  5
307
  8
0
  6
CONTINUOUS
 62
     7
 10
16.3629513696
 20
11.0510020543
 30
0.0
 11
16.3451635788
 21
11.0610173579
 31
0.0
  0
POLYLINE
  5
308
  8
0
  6
CONTINUOUS
 62
     7
 66
     1
 10
0.0
 20
0.0
 30
0.0
  0
VERTEX
  5
60E
  8
0
  6
CONTINUOUS
 62
     7
 10
16.3471037786
 20
11.0599243838
 30
0.0
  0
VERTEX
  5
60F
  8
0
  6
CONTINUOUS
 62
     7
 10
16.3326774696
 20
11.0654649754
 30
0.0
  0
VERTEX
  5
610
  8
0
  6
CONTINUOUS
 62
     7
 10
16.316447636
 20
11.0667139745
 30
0.0
  0
VERTEX
  5
611
  8
0
  6
CONTINUOUS
 62
     7
 10
16.2996591002
 20
11.0636225296
 30
0.0
  0
VERTEX
  5
612
  8
0
  6
CONTINUOUS
 62
     7
 10
16.2835252634
 20
11.0568248693
 30
0.0
  0
VERTEX
  5
613
  8
0
  6
CONTINUOUS
 62
     7
 10
16.2561705049
 20
11.036175093
 30
0.0
  0
VERTEX
  5
614
  8
0
  6
CONTINUOUS
 62
     7
 10
16.2355222582
 20
11.0105337461
 30
0.0
  0
VERTEX
  5
615
  8
0
  6
CONTINUOUS
 62
     7
 10
16.2219008985
 20
10.984436633
 30
0.0
  0
VERTEX
  5
616
  8
0
  6
CONTINUOUS
 62
     7
 10
16.2138852641
 20
10.9579341072
 30
0.0
  0
VERTEX
  5
617
  8
0
  6
CONTINUOUS
 62
     7
 10
16.2130563565
 20
10.9212042595
 30
0.0
  0
VERTEX
  5
618
  8
0
  6
CONTINUOUS
 62
     7
 10
16.2207449358
 20
10.8974571508
 30
0.0
  0
VERTEX
  5
619
  8
0
  6
CONTINUOUS
 62
     7
 10
16.2289986036
 20
10.8853116739
 30
0.0
  0
VERTEX
  5
61A
  8
0
  6
CONTINUOUS
 62
     7
 10
16.2415408533
 20
10.8750476612
 30
0.0
  0
SEQEND
  5
60D
  8
0
  6
CONTINUOUS
 62
     7
  0
LINE
  5
309
  8
0
  6
CONTINUOUS
 62
     7
 10
16.1763133904
 20
10.8601152089
 30
0.0
 11
16.2074420244
 21
10.8425884276
 31
0.0
  0
LINE
  5
30A
  8
0
  6
CONTINUOUS
 62
     7
 10
16.1608439159
 20
10.8702212812
 30
0.0
 11
16.1758760217
 21
10.8617575488
 31
0.0
  0
POLYLINE
  5
30B
  8
0
  6
CONTINUOUS
 62
     7
 66
     1
 10
0.0
 20
0.0
 30
0.0
  0
VERTEX
  5
61C
  8
0
  6
CONTINUOUS
 62
     7
 10
17.4794399073
 20
11.8542462411
 30
0.0
  0
VERTEX
  5
61D
  8
0
  6
CONTINUOUS
 62
     7
 10
17.510152782
 20
11.8436410414
 30
0.0
  0
VERTEX
  5
61E
  8
0
  6
CONTINUOUS
 62
     7
 10
17.5414423593
 20
11.843562623
 30
0.0
  0
VERTEX
  5
61F
  8
0
  6
CONTINUOUS
 62
     7
 10
17.5914405954
 20
11.8607830219
 30
0.0
  0
VERTEX
  5
620
  8
0
  6
CONTINUOUS
 62
     7
 10
17.6367686423
 20
11.8942578139
 30
0.0
  0
VERTEX
  5
621
  8
0
  6
CONTINUOUS
 62
     7
 10
17.6799358929
 20
11.9462969798
 30
0.0
  0
VERTEX
  5
622
  8
0
  6
CONTINUOUS
 62
     7
 10
17.7106897432
 20
12.0069520547
 30
0.0
  0
VERTEX
  5
623
  8
0
  6
CONTINUOUS
 62
     7
 10
17.7250719718
 20
12.0627957467
 30
0.0
  0
VERTEX
  5
624
  8
0
  6
CONTINUOUS
 62
     7
 10
17.7249728141
 20
12.1180786072
 30
0.0
  0
VERTEX
  5
625
  8
0
  6
CONTINUOUS
 62
     7
 10
17.7120234731
 20
12.1583042609
 30
0.0
  0
VERTEX
  5
626
  8
0
  6
CONTINUOUS
 62
     7
 10
17.6976557694
 20
12.1794606229
 30
0.0
  0
VERTEX
  5
627
  8
0
  6
CONTINUOUS
 62
     7
 10
17.6754853399
 20
12.197588726
 30
0.0
  0
SEQEND
  5
61B
  8
0
  6
CONTINUOUS
 62
     7
  0
LINE
  5
30C
  8
0
  6
CONTINUOUS
 62
     7
 10
17.2591710818
 20
11.9782661821
 30
0.0
 11
17.4797396886
 21
11.8540764172
 31
0.0
  0
LINE
  5
30D
  8
0
  6
CONTINUOUS
 62
     7
 10
17.6751855586
 20
12.19775855
 30
0.0
 11
17.4546169517
 21
12.3219483149
 31
0.0
  0
POLYLINE
  5
30E
  8
0
  6
CONTINUOUS
 62
     7
 66
     1
 10
0.0
 20
0.0
 30
0.0
  0
VERTEX
  5
629
  8
0
  6
CONTINUOUS
 62
     7
 10
17.9855999712
 20
12.1538422168
 30
0.0
  0
VERTEX
  5
62A
  8
0
  6
CONTINUOUS
 62
     7
 10
18.0163128458
 20
12.1432370171
 30
0.0
  0
VERTEX
  5
62B
  8
0
  6
CONTINUOUS
 62
     7
 10
18.0476024232
 20
12.1431585987
 30
0.0
  0
VERTEX
  5
62C
  8
0
  6
CONTINUOUS
 62
     7
 10
18.0976006592
 20
12.1603789976
 30
0.0
  0
VERTEX
  5
62D
  8
0
  6
CONTINUOUS
 62
     7
 10
18.1429287061
 20
12.1938537896
 30
0.0
  0
VERTEX
  5
62E
  8
0
  6
CONTINUOUS
 62
     7
 10
18.1860959567
 20
12.2458929555
 30
0.0
  0
VERTEX
  5
62F
  8
0
  6
CONTINUOUS
 62
     7
 10
18.2168498071
 20
12.3065480304
 30
0.0
  0
VERTEX
  5
630
  8
0
  6
CONTINUOUS
 62
     7
 10
18.2312320357
 20
12.3623917224
 30
0.0
  0
VERTEX
  5
631
  8
0
  6
CONTINUOUS
 62
     7
 10
18.231132878
 20
12.4176745829
 30
0.0
  0
VERTEX
  5
632
  8
0
  6
CONTINUOUS
 62
     7
 10
18.2181835369
 20
12.4579002366
 30
0.0
  0
VERTEX
  5
633
  8
0
  6
CONTINUOUS
 62
     7
 10
18.2038158332
 20
12.4790565986
 30
0.0
  0
VERTEX
  5
634
  8
0
  6
CONTINUOUS
 62
     7
 10
18.1816454037
 20
12.4971847017
 30
0.0
  0
SEQEND
  5
628
  8
0
  6
CONTINUOUS
 62
     7
  0
LINE
  5
30F
  8
0
  6
CONTINUOUS
 62
     7
 10
17.7653311456
 20
12.2778621577
 30
0.0
 11
17.9858997525
 21
12.1536723928
 31
0.0
  0
LINE
  5
310
  8
0
  6
CONTINUOUS
 62
     7
 10
18.1813456224
 20
12.4973545257
 30
0.0
 11
17.9607770155
 21
12.6215442906
 31
0.0
  0
POLYLINE
  5
311
  8
0
  6
CONTINUOUS
 62
     7
 66
     1
 10
0.0
 20
0.0
 30
0.0
  0
VERTEX
  5
636
  8
0
  6
CONTINUOUS
 62
     7
 10
18.4349023448
 20
12.9535072841
 30
0.0
  0
VERTEX
  5
637
  8
0
  6
CONTINUOUS
 62
     7
 10
18.4493286538
 20
12.9479666925
 30
0.0
  0
VERTEX
  5
638
  8
0
  6
CONTINUOUS
 62
     7
 10
18.4655584874
 20
12.9467176934
 30
0.0
  0
VERTEX
  5
639
  8
0
  6
CONTINUOUS
 62
     7
 10
18.4823470232
 20
12.9498091383
 30
0.0
  0
VERTEX
  5
63A
  8
0
  6
CONTINUOUS
 62
     7
 10
18.49848086
 20
12.9566067986
 30
0.0
  0
VERTEX
  5
63B
  8
0
  6
CONTINUOUS
 62
     7
 10
18.5258356185
 20
12.9772565749
 30
0.0
  0
VERTEX
  5
63C
  8
0
  6
CONTINUOUS
 62
     7
 10
18.5464838652
 20
13.0028979219
 30
0.0
  0
VERTEX
  5
63D
  8
0
  6
CONTINUOUS
 62
     7
 10
18.5601052249
 20
13.0289950349
 30
0.0
  0
VERTEX
  5
63E
  8
0
  6
CONTINUOUS
 62
     7
 10
18.5681208593
 20
13.0554975607
 30
0.0
  0
VERTEX
  5
63F
  8
0
  6
CONTINUOUS
 62
     7
 10
18.5689497669
 20
13.0922274084
 30
0.0
  0
VERTEX
  5
640
  8
0
  6
CONTINUOUS
 62
     7
 10
18.5612611876
 20
13.1159745171
 30
0.0
  0
VERTEX
  5
641
  8
0
  6
CONTINUOUS
 62
     7
 10
18.5530075198
 20
13.128119994
 30
0.0
  0
VERTEX
  5
642
  8
0
  6
CONTINUOUS
 62
     7
 10
18.5404652701
 20
13.1383840067
 30
0.0
  0
SEQEND
  5
635
  8
0
  6
CONTINUOUS
 62
     7
  0
LINE
  5
312
  8
0
  6
CONTINUOUS
 62
     7
 10
18.4190547538
 20
12.9624296136
 30
0.0
 11
18.4368425446
 21
12.95241431
 31
0.0
  0
LINE
  5
313
  8
0
  6
CONTINUOUS
 62
     7
 10
18.5420826284
 20
13.13747392
 30
0.0
 11
18.5242948376
 21
13.1474892237
 31
0.0
  0
POLYLINE
  5
314
  8
0
  6
CONTINUOUS
 62
     7
 66
     1
 10
0.0
 20
0.0
 30
0.0
  0
VERTEX
  5
644
  8
0
  6
CONTINUOUS
 62
     7
 10
18.5262350374
 20
13.1463962496
 30
0.0
  0
VERTEX
  5
645
  8
0
  6
CONTINUOUS
 62
     7
 10
18.5118087284
 20
13.1519368412
 30
0.0
  0
VERTEX
  5
646
  8
0
  6
CONTINUOUS
 62
     7
 10
18.4955788948
 20
13.1531858403
 30
0.0
  0
VERTEX
  5
647
  8
0
  6
CONTINUOUS
 62
     7
 10
18.478790359
 20
13.1500943954
 30
0.0
  0
VERTEX
  5
648
  8
0
  6
CONTINUOUS
 62
     7
 10
18.4626565222
 20
13.1432967351
 30
0.0
  0
VERTEX
  5
649
  8
0
  6
CONTINUOUS
 62
     7
 10
18.4353017637
 20
13.1226469588
 30
0.0
  0
VERTEX
  5
64A
  8
0
  6
CONTINUOUS
 62
     7
 10
18.414653517
 20
13.0970056118
 30
0.0
  0
VERTEX
  5
64B
  8
0
  6
CONTINUOUS
 62
     7
 10
18.4010321573
 20
13.0709084988
 30
0.0
  0
VERTEX
  5
64C
  8
0
  6
CONTINUOUS
 62
     7
 10
18.3930165229
 20
13.044405973
 30
0.0
  0
VERTEX
  5
64D
  8
0
  6
CONTINUOUS
 62
     7
 10
18.3921876153
 20
13.0076761253
 30
0.0
  0
VERTEX
  5
64E
  8
0
  6
CONTINUOUS
 62
     7
 10
18.3998761946
 20
12.9839290166
 30
0.0
  0
VERTEX
  5
64F
  8
0
  6
CONTINUOUS
 62
     7
 10
18.4081298624
 20
12.9717835397
 30
0.0
  0
VERTEX
  5
650
  8
0
  6
CONTINUOUS
 62
     7
 10
18.4206721121
 20
12.961519527
 30
0.0
  0
SEQEND
  5
643
  8
0
  6
CONTINUOUS
 62
     7
  0
LINE
  5
315
  8
0
  6
CONTINUOUS
 62
     7
 10
18.5239539919
 20
13.1914707766
 30
0.0
 11
18.4928253579
 21
13.208997558
 31
0.0
  0
LINE
  5
316
  8
0
  6
CONTINUOUS
 62
     7
 10
18.4905821795
 20
13.2088644833
 30
0.0
 11
15.6905579838
 21
14.7854004713
 31
0.0
  0
LINE
  5
317
  8
0
  6
CONTINUOUS
 62
     7
 10
18.3028043451
 20
12.5213165163
 30
0.0
 11
18.2352107398
 21
12.55937467
 31
0.0
  0
LINE
  5
318
  8
0
  6
CONTINUOUS
 62
     7
 10
18.922757269
 20
13.4170140069
 30
0.0
 11
16.1179784035
 21
14.9962270819
 31
0.0
  0
POLYLINE
  5
319
  8
0
  6
CONTINUOUS
 62
     7
 66
     1
 10
0.0
 20
0.0
 30
0.0
  0
VERTEX
  5
652
  8
0
  6
CONTINUOUS
 62
     7
 10
18.44341204
 20
12.1618993811
 30
0.0
  0
VERTEX
  5
653
  8
0
  6
CONTINUOUS
 62
     7
 10
18.4578383489
 20
12.1563587894
 30
0.0
  0
VERTEX
  5
654
  8
0
  6
CONTINUOUS
 62
     7
 10
18.4740681825
 20
12.1551097904
 30
0.0
  0
VERTEX
  5
655
  8
0
  6
CONTINUOUS
 62
     7
 10
18.4908567183
 20
12.1582012353
 30
0.0
  0
VERTEX
  5
656
  8
0
  6
CONTINUOUS
 62
     7
 10
18.5069905551
 20
12.1649988956
 30
0.0
  0
VERTEX
  5
657
  8
0
  6
CONTINUOUS
 62
     7
 10
18.5343453137
 20
12.1856486719
 30
0.0
  0
VERTEX
  5
658
  8
0
  6
CONTINUOUS
 62
     7
 10
18.5549935603
 20
12.2112900188
 30
0.0
  0
VERTEX
  5
659
  8
0
  6
CONTINUOUS
 62
     7
 10
18.56861492
 20
12.2373871319
 30
0.0
  0
VERTEX
  5
65A
  8
0
  6
CONTINUOUS
 62
     7
 10
18.5766305544
 20
12.2638896577
 30
0.0
  0
VERTEX
  5
65B
  8
0
  6
CONTINUOUS
 62
     7
 10
18.577459462
 20
12.3006195054
 30
0.0
  0
VERTEX
  5
65C
  8
0
  6
CONTINUOUS
 62
     7
 10
18.5697708827
 20
12.3243666141
 30
0.0
  0
VERTEX
  5
65D
  8
0
  6
CONTINUOUS
 62
     7
 10
18.5615172149
 20
12.336512091
 30
0.0
  0
VERTEX
  5
65E
  8
0
  6
CONTINUOUS
 62
     7
 10
18.5489749652
 20
12.3467761037
 30
0.0
  0
SEQEND
  5
651
  8
0
  6
CONTINUOUS
 62
     7
  0
LINE
  5
31A
  8
0
  6
CONTINUOUS
 62
     7
 10
18.4275644489
 20
12.1708217106
 30
0.0
 11
18.4453522398
 21
12.160806407
 31
0.0
  0
LINE
  5
31B
  8
0
  6
CONTINUOUS
 62
     7
 10
18.5505923235
 20
12.345866017
 30
0.0
 11
18.5328045327
 21
12.3558813206
 31
0.0
  0
LINE
  5
31C
  8
0
  6
CONTINUOUS
 62
     7
 10
13.427705957
 20
13.4904900696
 30
0.0
 11
13.4251482728
 21
13.4919301576
 31
0.0
  0
LINE
  5
31D
  8
0
  6
CONTINUOUS
 62
     7
 10
18.884749837
 20
13.3015009123
 30
0.0
 11
18.8386051376
 21
13.3274823946
 31
0.0
  0
POLYLINE
  5
31E
  8
0
  6
CONTINUOUS
 62
     7
 66
     1
 10
0.0
 20
0.0
 30
0.0
  0
VERTEX
  5
660
  8
0
  6
CONTINUOUS
 62
     7
 10
18.5347447325
 20
12.3547883466
 30
0.0
  0
VERTEX
  5
661
  8
0
  6
CONTINUOUS
 62
     7
 10
18.5203184235
 20
12.3603289382
 30
0.0
  0
VERTEX
  5
662
  8
0
  6
CONTINUOUS
 62
     7
 10
18.5040885899
 20
12.3615779372
 30
0.0
  0
VERTEX
  5
663
  8
0
  6
CONTINUOUS
 62
     7
 10
18.4873000542
 20
12.3584864923
 30
0.0
  0
VERTEX
  5
664
  8
0
  6
CONTINUOUS
 62
     7
 10
18.4711662173
 20
12.3516888321
 30
0.0
  0
VERTEX
  5
665
  8
0
  6
CONTINUOUS
 62
     7
 10
18.4438114588
 20
12.3310390558
 30
0.0
  0
VERTEX
  5
666
  8
0
  6
CONTINUOUS
 62
     7
 10
18.4231632121
 20
12.3053977088
 30
0.0
  0
VERTEX
  5
667
  8
0
  6
CONTINUOUS
 62
     7
 10
18.4095418524
 20
12.2793005958
 30
0.0
  0
VERTEX
  5
668
  8
0
  6
CONTINUOUS
 62
     7
 10
18.401526218
 20
12.25279807
 30
0.0
  0
VERTEX
  5
669
  8
0
  6
CONTINUOUS
 62
     7
 10
18.4006973104
 20
12.2160682223
 30
0.0
  0
VERTEX
  5
66A
  8
0
  6
CONTINUOUS
 62
     7
 10
18.4083858897
 20
12.1923211135
 30
0.0
  0
VERTEX
  5
66B
  8
0
  6
CONTINUOUS
 62
     7
 10
18.4166395575
 20
12.1801756367
 30
0.0
  0
VERTEX
  5
66C
  8
0
  6
CONTINUOUS
 62
     7
 10
18.4291818073
 20
12.169911624
 30
0.0
  0
SEQEND
  5
65F
  8
0
  6
CONTINUOUS
 62
     7
  0
POLYLINE
  5
31F
  8
0
  6
CONTINUOUS
 62
     7
 66
     1
 10
0.0
 20
0.0
 30
0.0
  0
VERTEX
  5
66E
  8
0
  6
CONTINUOUS
 62
     7
 10
13.4270884726
 20
13.4908371835
 30
0.0
  0
VERTEX
  5
66F
  8
0
  6
CONTINUOUS
 62
     7
 10
13.4126621636
 20
13.4963777752
 30
0.0
  0
VERTEX
  5
670
  8
0
  6
CONTINUOUS
 62
     7
 10
13.3964323301
 20
13.4976267742
 30
0.0
  0
VERTEX
  5
671
  8
0
  6
CONTINUOUS
 62
     7
 10
13.3796437943
 20
13.4945353293
 30
0.0
  0
VERTEX
  5
672
  8
0
  6
CONTINUOUS
 62
     7
 10
13.3635099574
 20
13.487737669
 30
0.0
  0
VERTEX
  5
673
  8
0
  6
CONTINUOUS
 62
     7
 10
13.3361551989
 20
13.4670878927
 30
0.0
  0
VERTEX
  5
674
  8
0
  6
CONTINUOUS
 62
     7
 10
13.3155069522
 20
13.4414465458
 30
0.0
  0
VERTEX
  5
675
  8
0
  6
CONTINUOUS
 62
     7
 10
13.3018855925
 20
13.4153494327
 30
0.0
  0
VERTEX
  5
676
  8
0
  6
CONTINUOUS
 62
     7
 10
13.2938699582
 20
13.3888469069
 30
0.0
  0
VERTEX
  5
677
  8
0
  6
CONTINUOUS
 62
     7
 10
13.2930410506
 20
13.3521170592
 30
0.0
  0
VERTEX
  5
678
  8
0
  6
CONTINUOUS
 62
     7
 10
13.2987965427
 20
13.3343405243
 30
0.0
  0
SEQEND
  5
66D
  8
0
  6
CONTINUOUS
 62
     7
  0
LINE
  5
320
  8
0
  6
CONTINUOUS
 62
     7
 10
18.8267632804
 20
12.9539122793
 30
0.0
 11
18.5899166764
 21
13.0872672679
 31
0.0
  0
LINE
  5
321
  8
0
  6
CONTINUOUS
 62
     7
 10
18.8277568752
 20
12.8614838797
 30
0.0
 11
18.7816121759
 21
12.887465362
 31
0.0
  0
LINE
  5
322
  8
0
  6
CONTINUOUS
 62
     7
 10
18.836806397
 20
12.7738237806
 30
0.0
 11
18.7906616977
 21
12.7998052629
 31
0.0
  0
LINE
  5
323
  8
0
  6
CONTINUOUS
 62
     7
 10
18.8541662975
 20
12.691082592
 30
0.0
 11
18.8080215981
 21
12.7170640743
 31
0.0
  0
LINE
  5
324
  8
0
  6
CONTINUOUS
 62
     7
 10
18.8803879163
 20
12.6135866515
 30
0.0
 11
18.834243217
 21
12.6395681338
 31
0.0
  0
LINE
  5
325
  8
0
  6
CONTINUOUS
 62
     7
 10
18.9164222775
 20
12.5418988701
 30
0.0
 11
18.870011968
 21
12.5680299026
 31
0.0
  0
LINE
  5
326
  8
0
  6
CONTINUOUS
 62
     7
 10
15.615346911
 20
14.7853540324
 30
0.0
 11
15.6127892267
 21
14.7867941203
 31
0.0
  0
POLYLINE
  5
327
  8
0
  6
CONTINUOUS
 62
     7
 66
     1
 10
0.0
 20
0.0
 30
0.0
  0
VERTEX
  5
67A
  8
0
  6
CONTINUOUS
 62
     7
 10
15.6147294265
 20
14.7857011463
 30
0.0
  0
VERTEX
  5
67B
  8
0
  6
CONTINUOUS
 62
     7
 10
15.6003031176
 20
14.7912417379
 30
0.0
  0
VERTEX
  5
67C
  8
0
  6
CONTINUOUS
 62
     7
 10
15.584073284
 20
14.7924907369
 30
0.0
  0
VERTEX
  5
67D
  8
0
  6
CONTINUOUS
 62
     7
 10
15.5672847482
 20
14.789399292
 30
0.0
  0
VERTEX
  5
67E
  8
0
  6
CONTINUOUS
 62
     7
 10
15.5511509114
 20
14.7826016318
 30
0.0
  0
VERTEX
  5
67F
  8
0
  6
CONTINUOUS
 62
     7
 10
15.5237961528
 20
14.7619518555
 30
0.0
  0
VERTEX
  5
680
  8
0
  6
CONTINUOUS
 62
     7
 10
15.5031479062
 20
14.7363105085
 30
0.0
  0
VERTEX
  5
681
  8
0
  6
CONTINUOUS
 62
     7
 10
15.4900307807
 20
14.711179456
 30
0.0
  0
SEQEND
  5
679
  8
0
  6
CONTINUOUS
 62
     7
  0
LINE
  5
328
  8
0
  6
CONTINUOUS
 62
     7
 10
15.6942722191
 20
14.7847052766
 30
0.0
 11
15.6631435851
 21
14.802232058
 31
0.0
  0
LINE
  5
329
  8
0
  6
CONTINUOUS
 62
     7
 10
13.3666925514
 20
13.4890785895
 30
0.0
 11
13.3663064699
 21
13.524993523
 31
0.0
  0
LINE
  5
32A
  8
0
  6
CONTINUOUS
 62
     7
 10
13.3663064699
 20
13.524993523
 30
0.0
 11
13.3996607164
 21
13.700970202
 31
0.0
  0
LINE
  5
32B
  8
0
  6
CONTINUOUS
 62
     7
 10
13.3996607164
 20
13.700970202
 30
0.0
 11
13.6135207432
 21
13.5805576609
 31
0.0
  0
LINE
  5
32C
  8
0
  6
CONTINUOUS
 62
     7
 10
13.9589458409
 20
14.0320108837
 30
0.0
 11
13.3996607164
 21
13.700970202
 31
0.0
  0
LINE
  5
32D
  8
0
  6
CONTINUOUS
 62
     7
 10
13.9589458409
 20
14.0320108837
 30
0.0
 11
14.1683935684
 21
13.9140826598
 31
0.0
  0
POLYLINE
  5
32E
  8
0
  6
CONTINUOUS
 62
     7
 66
     1
 10
0.0
 20
0.0
 30
0.0
  0
VERTEX
  5
683
  8
0
  6
CONTINUOUS
 62
     7
 10
14.0329824457
 20
13.9048104274
 30
0.0
  0
VERTEX
  5
684
  8
0
  6
CONTINUOUS
 62
     7
 10
14.0449075531
 20
13.9153429236
 30
0.0
  0
VERTEX
  5
685
  8
0
  6
CONTINUOUS
 62
     7
 10
14.0490012412
 20
13.927659174
 30
0.0
  0
VERTEX
  5
686
  8
0
  6
CONTINUOUS
 62
     7
 10
14.0446402833
 20
13.9398841413
 30
0.0
  0
VERTEX
  5
687
  8
0
  6
CONTINUOUS
 62
     7
 10
14.0324885956
 20
13.9501566848
 30
0.0
  0
VERTEX
  5
688
  8
0
  6
CONTINUOUS
 62
     7
 10
14.0143961623
 20
13.9569129031
 30
0.0
  0
VERTEX
  5
689
  8
0
  6
CONTINUOUS
 62
     7
 10
13.9931173926
 20
13.959124223
 30
0.0
  0
VERTEX
  5
68A
  8
0
  6
CONTINUOUS
 62
     7
 10
13.9718917861
 20
13.9564539913
 30
0.0
  0
VERTEX
  5
68B
  8
0
  6
CONTINUOUS
 62
     7
 10
13.9539507491
 20
13.9493087264
 30
0.0
  0
VERTEX
  5
68C
  8
0
  6
CONTINUOUS
 62
     7
 10
13.9420256417
 20
13.9387762302
 30
0.0
  0
VERTEX
  5
68D
  8
0
  6
CONTINUOUS
 62
     7
 10
13.9379319536
 20
13.9264599798
 30
0.0
  0
VERTEX
  5
68E
  8
0
  6
CONTINUOUS
 62
     7
 10
13.9422929115
 20
13.9142350126
 30
0.0
  0
VERTEX
  5
68F
  8
0
  6
CONTINUOUS
 62
     7
 10
13.9544445992
 20
13.903962469
 30
0.0
  0
VERTEX
  5
690
  8
0
  6
CONTINUOUS
 62
     7
 10
13.9725370324
 20
13.8972062508
 30
0.0
  0
VERTEX
  5
691
  8
0
  6
CONTINUOUS
 62
     7
 10
13.9938158022
 20
13.8949949308
 30
0.0
  0
VERTEX
  5
692
  8
0
  6
CONTINUOUS
 62
     7
 10
14.0150414087
 20
13.8976651625
 30
0.0
  0
VERTEX
  5
693
  8
0
  6
CONTINUOUS
 62
     7
 10
14.0329824457
 20
13.9048104274
 30
0.0
  0
SEQEND
  5
682
  8
0
  6
CONTINUOUS
 62
     7
  0
POLYLINE
  5
32F
  8
0
  6
CONTINUOUS
 62
     7
 66
     1
 10
0.0
 20
0.0
 30
0.0
  0
VERTEX
  5
695
  8
0
  6
CONTINUOUS
 62
     7
 10
13.8959155745
 20
13.8236805913
 30
0.0
  0
VERTEX
  5
696
  8
0
  6
CONTINUOUS
 62
     7
 10
13.9078406818
 20
13.8342130875
 30
0.0
  0
VERTEX
  5
697
  8
0
  6
CONTINUOUS
 62
     7
 10
13.91193437
 20
13.8465293379
 30
0.0
  0
VERTEX
  5
698
  8
0
  6
CONTINUOUS
 62
     7
 10
13.907573412
 20
13.8587543052
 30
0.0
  0
VERTEX
  5
699
  8
0
  6
CONTINUOUS
 62
     7
 10
13.8954217243
 20
13.8690268487
 30
0.0
  0
VERTEX
  5
69A
  8
0
  6
CONTINUOUS
 62
     7
 10
13.8773292911
 20
13.875783067
 30
0.0
  0
VERTEX
  5
69B
  8
0
  6
CONTINUOUS
 62
     7
 10
13.8560505214
 20
13.8779943869
 30
0.0
  0
VERTEX
  5
69C
  8
0
  6
CONTINUOUS
 62
     7
 10
13.8348249149
 20
13.8753241552
 30
0.0
  0
VERTEX
  5
69D
  8
0
  6
CONTINUOUS
 62
     7
 10
13.8168838778
 20
13.8681788903
 30
0.0
  0
VERTEX
  5
69E
  8
0
  6
CONTINUOUS
 62
     7
 10
13.8049587705
 20
13.8576463941
 30
0.0
  0
VERTEX
  5
69F
  8
0
  6
CONTINUOUS
 62
     7
 10
13.8008650823
 20
13.8453301437
 30
0.0
  0
VERTEX
  5
6A0
  8
0
  6
CONTINUOUS
 62
     7
 10
13.8052260403
 20
13.8331051765
 30
0.0
  0
VERTEX
  5
6A1
  8
0
  6
CONTINUOUS
 62
     7
 10
13.817377728
 20
13.8228326329
 30
0.0
  0
VERTEX
  5
6A2
  8
0
  6
CONTINUOUS
 62
     7
 10
13.8354701612
 20
13.8160764146
 30
0.0
  0
VERTEX
  5
6A3
  8
0
  6
CONTINUOUS
 62
     7
 10
13.856748931
 20
13.8138650947
 30
0.0
  0
VERTEX
  5
6A4
  8
0
  6
CONTINUOUS
 62
     7
 10
13.8779745374
 20
13.8165353264
 30
0.0
  0
VERTEX
  5
6A5
  8
0
  6
CONTINUOUS
 62
     7
 10
13.8959155745
 20
13.8236805913
 30
0.0
  0
SEQEND
  5
694
  8
0
  6
CONTINUOUS
 62
     7
  0
POLYLINE
  5
330
  8
0
  6
CONTINUOUS
 62
     7
 66
     1
 10
0.0
 20
0.0
 30
0.0
  0
VERTEX
  5
6A7
  8
0
  6
CONTINUOUS
 62
     7
 10
13.7588487032
 20
13.7425507552
 30
0.0
  0
VERTEX
  5
6A8
  8
0
  6
CONTINUOUS
 62
     7
 10
13.7707738106
 20
13.7530832514
 30
0.0
  0
VERTEX
  5
6A9
  8
0
  6
CONTINUOUS
 62
     7
 10
13.7748674987
 20
13.7653995018
 30
0.0
  0
VERTEX
  5
6AA
  8
0
  6
CONTINUOUS
 62
     7
 10
13.7705065408
 20
13.777624469
 30
0.0
  0
VERTEX
  5
6AB
  8
0
  6
CONTINUOUS
 62
     7
 10
13.7583548531
 20
13.7878970126
 30
0.0
  0
VERTEX
  5
6AC
  8
0
  6
CONTINUOUS
 62
     7
 10
13.7402624199
 20
13.7946532309
 30
0.0
  0
VERTEX
  5
6AD
  8
0
  6
CONTINUOUS
 62
     7
 10
13.7189836501
 20
13.7968645508
 30
0.0
  0
VERTEX
  5
6AE
  8
0
  6
CONTINUOUS
 62
     7
 10
13.6977580436
 20
13.7941943191
 30
0.0
  0
VERTEX
  5
6AF
  8
0
  6
CONTINUOUS
 62
     7
 10
13.6798170066
 20
13.7870490542
 30
0.0
  0
VERTEX
  5
6B0
  8
0
  6
CONTINUOUS
 62
     7
 10
13.6678918992
 20
13.776516558
 30
0.0
  0
VERTEX
  5
6B1
  8
0
  6
CONTINUOUS
 62
     7
 10
13.6637982111
 20
13.7642003076
 30
0.0
  0
VERTEX
  5
6B2
  8
0
  6
CONTINUOUS
 62
     7
 10
13.668159169
 20
13.7519753403
 30
0.0
  0
VERTEX
  5
6B3
  8
0
  6
CONTINUOUS
 62
     7
 10
13.6803108567
 20
13.7417027968
 30
0.0
  0
VERTEX
  5
6B4
  8
0
  6
CONTINUOUS
 62
     7
 10
13.69840329
 20
13.7349465785
 30
0.0
  0
VERTEX
  5
6B5
  8
0
  6
CONTINUOUS
 62
     7
 10
13.7196820597
 20
13.7327352586
 30
0.0
  0
VERTEX
  5
6B6
  8
0
  6
CONTINUOUS
 62
     7
 10
13.7409076662
 20
13.7354054903
 30
0.0
  0
VERTEX
  5
6B7
  8
0
  6
CONTINUOUS
 62
     7
 10
13.7588487032
 20
13.7425507552
 30
0.0
  0
SEQEND
  5
6A6
  8
0
  6
CONTINUOUS
 62
     7
  0
POLYLINE
  5
331
  8
0
  6
CONTINUOUS
 62
     7
 66
     1
 10
0.0
 20
0.0
 30
0.0
  0
VERTEX
  5
6B9
  8
0
  6
CONTINUOUS
 62
     7
 10
13.621781832
 20
13.6614209191
 30
0.0
  0
VERTEX
  5
6BA
  8
0
  6
CONTINUOUS
 62
     7
 10
13.6337069393
 20
13.6719534153
 30
0.0
  0
VERTEX
  5
6BB
  8
0
  6
CONTINUOUS
 62
     7
 10
13.6378006275
 20
13.6842696657
 30
0.0
  0
VERTEX
  5
6BC
  8
0
  6
CONTINUOUS
 62
     7
 10
13.6334396696
 20
13.6964946329
 30
0.0
  0
VERTEX
  5
6BD
  8
0
  6
CONTINUOUS
 62
     7
 10
13.6212879818
 20
13.7067671765
 30
0.0
  0
VERTEX
  5
6BE
  8
0
  6
CONTINUOUS
 62
     7
 10
13.6031955486
 20
13.7135233947
 30
0.0
  0
VERTEX
  5
6BF
  8
0
  6
CONTINUOUS
 62
     7
 10
13.5819167789
 20
13.7157347147
 30
0.0
  0
VERTEX
  5
6C0
  8
0
  6
CONTINUOUS
 62
     7
 10
13.5606911724
 20
13.713064483
 30
0.0
  0
VERTEX
  5
6C1
  8
0
  6
CONTINUOUS
 62
     7
 10
13.5427501353
 20
13.7059192181
 30
0.0
  0
VERTEX
  5
6C2
  8
0
  6
CONTINUOUS
 62
     7
 10
13.530825028
 20
13.6953867219
 30
0.0
  0
VERTEX
  5
6C3
  8
0
  6
CONTINUOUS
 62
     7
 10
13.5267313398
 20
13.6830704715
 30
0.0
  0
VERTEX
  5
6C4
  8
0
  6
CONTINUOUS
 62
     7
 10
13.5310922978
 20
13.6708455042
 30
0.0
  0
VERTEX
  5
6C5
  8
0
  6
CONTINUOUS
 62
     7
 10
13.5432439855
 20
13.6605729607
 30
0.0
  0
VERTEX
  5
6C6
  8
0
  6
CONTINUOUS
 62
     7
 10
13.5613364187
 20
13.6538167424
 30
0.0
  0
VERTEX
  5
6C7
  8
0
  6
CONTINUOUS
 62
     7
 10
13.5826151885
 20
13.6516054225
 30
0.0
  0
VERTEX
  5
6C8
  8
0
  6
CONTINUOUS
 62
     7
 10
13.6038407949
 20
13.6542756542
 30
0.0
  0
VERTEX
  5
6C9
  8
0
  6
CONTINUOUS
 62
     7
 10
13.621781832
 20
13.6614209191
 30
0.0
  0
SEQEND
  5
6B8
  8
0
  6
CONTINUOUS
 62
     7
  0
ARC
  5
332
  8
0
  6
CONTINUOUS
 62
     7
 10
13.583201527
 20
13.596641858
 30
0.0
 40
0.0792026971882436
 50
57.8776944088
 51
123.3541043971
  0
ARC
  5
333
  8
0
  6
CONTINUOUS
 62
     7
 10
13.7202683983
 20
13.6777716941
 30
0.0
 40
0.0792026971880928
 50
57.8776944085
 51
123.3541043974
  0
ARC
  5
334
  8
0
  6
CONTINUOUS
 62
     7
 10
13.8573352695
 20
13.7589015302
 30
0.0
 40
0.0792026971883081
 50
57.8776944089
 51
123.354104397
  0
ARC
  5
335
  8
0
  6
CONTINUOUS
 62
     7
 10
13.9944021408
 20
13.8400313663
 30
0.0
 40
0.0792026971882663
 50
57.8776944088
 51
123.3541043971
  0
LINE
  5
336
  8
0
  6
CONTINUOUS
 62
     7
 10
17.4530257453
 20
11.5466243092
 30
0.0
 11
17.4527927523
 21
11.5682983046
 31
0.0
  0
ARC
  5
337
  8
0
  6
CONTINUOUS
 62
     7
 10
17.4618235923
 20
11.5453452353
 30
0.0
 40
0.0088903398052459
 50
171.7280165332
 51
257.0981485489
  0
ARC
  5
338
  8
0
  6
CONTINUOUS
 62
     7
 10
17.4462215231
 20
11.4236264379
 30
0.0
 40
0.1138700231167104
 50
31.6609446748
 51
83.1319119514
  0
POLYLINE
  5
339
  8
0
  6
CONTINUOUS
 62
     7
 66
     1
 10
0.0
 20
0.0
 30
0.0
  0
VERTEX
  5
6CB
  8
0
  6
CONTINUOUS
 62
     7
 10
17.5088597313
 20
11.4354417142
 30
0.0
  0
VERTEX
  5
6CC
  8
0
  6
CONTINUOUS
 62
     7
 10
17.5148806743
 20
11.433401364
 30
0.0
  0
VERTEX
  5
6CD
  8
0
  6
CONTINUOUS
 62
     7
 10
17.5221888026
 20
11.4349792883
 30
0.0
  0
VERTEX
  5
6CE
  8
0
  6
CONTINUOUS
 62
     7
 10
17.5298218524
 20
11.4399677212
 30
0.0
  0
VERTEX
  5
6CF
  8
0
  6
CONTINUOUS
 62
     7
 10
17.5367747772
 20
11.447709834
 30
0.0
  0
VERTEX
  5
6D0
  8
0
  6
CONTINUOUS
 62
     7
 10
17.542132083
 20
11.4571862198
 30
0.0
  0
VERTEX
  5
6D1
  8
0
  6
CONTINUOUS
 62
     7
 10
17.5451883712
 20
11.4671491194
 30
0.0
  0
VERTEX
  5
6D2
  8
0
  6
CONTINUOUS
 62
     7
 10
17.5455412193
 20
11.4762867144
 30
0.0
  0
VERTEX
  5
6D3
  8
0
  6
CONTINUOUS
 62
     7
 10
17.5431441677
 20
11.4833958542
 30
0.0
  0
SEQEND
  5
6CA
  8
0
  6
CONTINUOUS
 62
     7
  0
POLYLINE
  5
33A
  8
0
  6
CONTINUOUS
 62
     7
 66
     1
 10
0.0
 20
0.0
 30
0.0
  0
VERTEX
  5
6D5
  8
0
  6
CONTINUOUS
 62
     7
 10
17.1894872299
 20
11.2464052354
 30
0.0
  0
VERTEX
  5
6D6
  8
0
  6
CONTINUOUS
 62
     7
 10
17.2181672209
 20
11.2959075509
 30
0.0
  0
VERTEX
  5
6D7
  8
0
  6
CONTINUOUS
 62
     7
 10
17.2516754683
 20
11.3412314883
 30
0.0
  0
VERTEX
  5
6D8
  8
0
  6
CONTINUOUS
 62
     7
 10
17.2887930116
 20
11.3807282569
 30
0.0
  0
VERTEX
  5
6D9
  8
0
  6
CONTINUOUS
 62
     7
 10
17.3281695919
 20
11.4129610463
 30
0.0
  0
VERTEX
  5
6DA
  8
0
  6
CONTINUOUS
 62
     7
 10
17.3683727709
 20
11.4367572948
 30
0.0
  0
VERTEX
  5
6DB
  8
0
  6
CONTINUOUS
 62
     7
 10
17.4079400406
 20
11.4512513442
 30
0.0
  0
VERTEX
  5
6DC
  8
0
  6
CONTINUOUS
 62
     7
 10
17.445432026
 20
11.4559159312
 30
0.0
  0
VERTEX
  5
6DD
  8
0
  6
CONTINUOUS
 62
     7
 10
17.4794848465
 20
11.4505813677
 30
0.0
  0
VERTEX
  5
6DE
  8
0
  6
CONTINUOUS
 62
     7
 10
17.5088597313
 20
11.4354417142
 30
0.0
  0
SEQEND
  5
6D4
  8
0
  6
CONTINUOUS
 62
     7
  0
POLYLINE
  5
33B
  8
0
  6
CONTINUOUS
 62
     7
 66
     1
 10
0.0
 20
0.0
 30
0.0
  0
VERTEX
  5
6E0
  8
0
  6
CONTINUOUS
 62
     7
 10
17.1546118442
 20
11.2534236994
 30
0.0
  0
VERTEX
  5
6E1
  8
0
  6
CONTINUOUS
 62
     7
 10
17.1523969825
 20
11.2435847696
 30
0.0
  0
VERTEX
  5
6E2
  8
0
  6
CONTINUOUS
 62
     7
 10
17.1529405829
 20
11.2349777823
 30
0.0
  0
VERTEX
  5
6E3
  8
0
  6
CONTINUOUS
 62
     7
 10
17.1561710693
 20
11.2287360224
 30
0.0
  0
VERTEX
  5
6E4
  8
0
  6
CONTINUOUS
 62
     7
 10
17.1616630826
 20
11.225681345
 30
0.0
  0
VERTEX
  5
6E5
  8
0
  6
CONTINUOUS
 62
     7
 10
17.1686934872
 20
11.2262159603
 30
0.0
  0
VERTEX
  5
6E6
  8
0
  6
CONTINUOUS
 62
     7
 10
17.1763365872
 20
11.2302694755
 30
0.0
  0
VERTEX
  5
6E7
  8
0
  6
CONTINUOUS
 62
     7
 10
17.183586013
 20
11.2373081627
 30
0.0
  0
VERTEX
  5
6E8
  8
0
  6
CONTINUOUS
 62
     7
 10
17.1894872299
 20
11.2464052354
 30
0.0
  0
SEQEND
  5
6DF
  8
0
  6
CONTINUOUS
 62
     7
  0
ARC
  5
33C
  8
0
  6
CONTINUOUS
 62
     7
 10
17.6817733429
 20
11.0666436607
 30
0.0
 40
0.5592727675325025
 50
142.8967159383
 51
160.4901148959
  0
ARC
  5
33D
  8
0
  6
CONTINUOUS
 62
     7
 10
17.2117106925
 20
11.4229056974
 30
0.0
 40
0.0305470974592269
 50
321.8284266767
 51
358.0386879742
  0
LINE
  5
33E
  8
0
  6
CONTINUOUS
 62
     7
 10
17.2420069014
 20
11.4435342286
 30
0.0
 11
17.2422398944
 21
11.4218602332
 31
0.0
  0
ARC
  5
33F
  8
0
  6
CONTINUOUS
 62
     7
 10
15.7807683369
 20
11.513742542
 30
0.0
 40
0.043344017803108
 50
123.2282599059
 51
178.0089154327
  0
LINE
  5
340
  8
0
  6
CONTINUOUS
 62
     7
 10
16.1408710178
 20
11.7772027084
 30
0.0
 11
15.7570168609
 21
11.5499995588
 31
0.0
  0
ARC
  5
341
  8
0
  6
CONTINUOUS
 62
     7
 10
16.1164778971
 20
11.8140062
 30
0.0
 40
0.044153384186994
 50
303.5361646374
 51
347.0451246214
  0
POLYLINE
  5
342
  8
0
  6
CONTINUOUS
 62
     7
 66
     1
 10
0.0
 20
0.0
 30
0.0
  0
VERTEX
  5
6EA
  8
0
  6
CONTINUOUS
 62
     7
 10
16.1595074421
 20
11.8041077355
 30
0.0
  0
VERTEX
  5
6EB
  8
0
  6
CONTINUOUS
 62
     7
 10
16.1578449249
 20
11.794295428
 30
0.0
  0
VERTEX
  5
6EC
  8
0
  6
CONTINUOUS
 62
     7
 10
16.1575215222
 20
11.7873586888
 30
0.0
  0
SEQEND
  5
6E9
  8
0
  6
CONTINUOUS
 62
     7
  0
LINE
  5
343
  8
0
  6
CONTINUOUS
 62
     7
 10
16.1566668343
 20
11.7865522469
 30
0.0
 11
16.1573390903
 21
11.7240161468
 31
0.0
  0
POLYLINE
  5
344
  8
0
  6
CONTINUOUS
 62
     7
 66
     1
 10
0.0
 20
0.0
 30
0.0
  0
VERTEX
  5
6EE
  8
0
  6
CONTINUOUS
 62
     7
 10
16.1382076601
 20
11.7291180138
 30
0.0
  0
VERTEX
  5
6EF
  8
0
  6
CONTINUOUS
 62
     7
 10
16.1413563896
 20
11.7306878998
 30
0.0
  0
VERTEX
  5
6F0
  8
0
  6
CONTINUOUS
 62
     7
 10
16.1444315305
 20
11.7316339901
 30
0.0
  0
VERTEX
  5
6F1
  8
0
  6
CONTINUOUS
 62
     7
 10
16.1473550829
 20
11.7319322874
 30
0.0
  0
VERTEX
  5
6F2
  8
0
  6
CONTINUOUS
 62
     7
 10
16.1500528919
 20
11.7315752255
 30
0.0
  0
VERTEX
  5
6F3
  8
0
  6
CONTINUOUS
 62
     7
 10
16.1524565288
 20
11.7305718612
 30
0.0
  0
VERTEX
  5
6F4
  8
0
  6
CONTINUOUS
 62
     7
 10
16.154505026
 20
11.7289476444
 30
0.0
  0
VERTEX
  5
6F5
  8
0
  6
CONTINUOUS
 62
     7
 10
16.1561464244
 20
11.7267437729
 30
0.0
  0
VERTEX
  5
6F6
  8
0
  6
CONTINUOUS
 62
     7
 10
16.1573390903
 20
11.7240161468
 30
0.0
  0
SEQEND
  5
6ED
  8
0
  6
CONTINUOUS
 62
     7
  0
LINE
  5
345
  8
0
  6
CONTINUOUS
 62
     7
 10
15.7575136583
 20
11.503785359
 30
0.0
 11
16.1382076601
 21
11.7291180138
 31
0.0
  0
ARC
  5
346
  8
0
  6
CONTINUOUS
 62
     7
 10
15.7496264698
 20
11.5132400506
 30
0.0
 40
0.0123125519347274
 50
171.4020084688
 51
309.8351668698
  0
LINE
  5
347
  8
0
  6
CONTINUOUS
 62
     7
 10
15.7374504883
 20
11.515248486
 30
0.0
 11
15.737452291
 21
11.5150807856
 31
0.0
  0
LINE
  5
348
  8
0
  6
CONTINUOUS
 62
     7
 10
12.9522379954
 20
13.1292126338
 30
0.0
 11
15.7570168609
 21
11.5499995588
 31
0.0
  0
LINE
  5
349
  8
0
  6
CONTINUOUS
 62
     7
 10
15.7374504883
 20
11.515248486
 30
0.0
 11
12.9326716227
 21
13.094461561
 31
0.0
  0
ARC
  5
34A
  8
0
  6
CONTINUOUS
 62
     7
 10
12.9759894713
 20
13.092955617
 30
0.0
 40
0.0433440178031124
 50
123.2282599059
 51
178.0089154327
  0
LINE
  5
34B
  8
0
  6
CONTINUOUS
 62
     7
 10
12.9326734255
 20
13.0942938605
 30
0.0
 11
15.737452291
 21
11.5150807856
 31
0.0
  0
LINE
  5
34C
  8
0
  6
CONTINUOUS
 62
     7
 10
12.9326716227
 20
13.094461561
 30
0.0
 11
12.9326734255
 21
13.0942938605
 31
0.0
  0
LINE
  5
34D
  8
0
  6
CONTINUOUS
 62
     7
 10
13.3360921523
 20
13.3564157833
 30
0.0
 11
12.9522379954
 21
13.1292126338
 31
0.0
  0
LINE
  5
34E
  8
0
  6
CONTINUOUS
 62
     7
 10
16.1408710178
 20
11.7772027084
 30
0.0
 11
13.3360921523
 21
13.3564157833
 31
0.0
  0
ARC
  5
34F
  8
0
  6
CONTINUOUS
 62
     7
 10
12.9468021971
 20
13.0930560749
 30
0.0
 40
0.0141828876535261
 50
174.9932459629
 51
234.9237884181
  0
ARC
  5
350
  8
0
  6
CONTINUOUS
 62
     7
 10
15.8207629586
 20
11.4443988375
 30
0.0
 40
0.0433440178031057
 50
123.2282599059
 51
178.0089154327
  0
LINE
  5
351
  8
0
  6
CONTINUOUS
 62
     7
 10
16.1387044575
 20
11.682903814
 30
0.0
 11
15.7970114826
 21
11.4806558543
 31
0.0
  0
ARC
  5
352
  8
0
  6
CONTINUOUS
 62
     7
 10
16.1142854038
 20
11.7197289425
 30
0.0
 40
0.0441857474126833
 50
303.548694201
 51
347.8720934159
  0
LINE
  5
353
  8
0
  6
CONTINUOUS
 62
     7
 10
16.1574849705
 20
11.7104457476
 30
0.0
 11
16.1579444841
 21
11.6676998451
 31
0.0
  0
LINE
  5
354
  8
0
  6
CONTINUOUS
 62
     7
 10
16.1753167745
 20
11.6579184864
 30
0.0
 11
16.1754906533
 21
11.641743543
 31
0.0
  0
POLYLINE
  5
355
  8
0
  6
CONTINUOUS
 62
     7
 66
     1
 10
0.0
 20
0.0
 30
0.0
  0
VERTEX
  5
6F8
  8
0
  6
CONTINUOUS
 62
     7
 10
16.1563592232
 20
11.64684541
 30
0.0
  0
VERTEX
  5
6F9
  8
0
  6
CONTINUOUS
 62
     7
 10
16.1595079527
 20
11.648415296
 30
0.0
  0
VERTEX
  5
6FA
  8
0
  6
CONTINUOUS
 62
     7
 10
16.1625830936
 20
11.6493613863
 30
0.0
  0
VERTEX
  5
6FB
  8
0
  6
CONTINUOUS
 62
     7
 10
16.1655066459
 20
11.6496596836
 30
0.0
  0
VERTEX
  5
6FC
  8
0
  6
CONTINUOUS
 62
     7
 10
16.168204455
 20
11.6493026217
 30
0.0
  0
VERTEX
  5
6FD
  8
0
  6
CONTINUOUS
 62
     7
 10
16.1706080918
 20
11.6482992574
 30
0.0
  0
VERTEX
  5
6FE
  8
0
  6
CONTINUOUS
 62
     7
 10
16.1726565891
 20
11.6466750406
 30
0.0
  0
VERTEX
  5
6FF
  8
0
  6
CONTINUOUS
 62
     7
 10
16.1742979874
 20
11.6444711691
 30
0.0
  0
VERTEX
  5
700
  8
0
  6
CONTINUOUS
 62
     7
 10
16.1754906533
 20
11.641743543
 30
0.0
  0
SEQEND
  5
6F7
  8
0
  6
CONTINUOUS
 62
     7
  0
LINE
  5
356
  8
0
  6
CONTINUOUS
 62
     7
 10
15.79750828
 20
11.4344416545
 30
0.0
 11
16.1563592232
 21
11.64684541
 31
0.0
  0
ARC
  5
357
  8
0
  6
CONTINUOUS
 62
     7
 10
15.7896210915
 20
11.4438963461
 30
0.0
 40
0.0123125519347293
 50
171.4020084688
 51
309.8351668698
  0
LINE
  5
358
  8
0
  6
CONTINUOUS
 62
     7
 10
15.77744511
 20
11.4459047815
 30
0.0
 11
15.7774469127
 21
11.445737081
 31
0.0
  0
LINE
  5
359
  8
0
  6
CONTINUOUS
 62
     7
 10
15.77744511
 20
11.4459047815
 30
0.0
 11
12.9726662444
 21
13.0251178564
 31
0.0
  0
ARC
  5
35A
  8
0
  6
CONTINUOUS
 62
     7
 10
13.0170666358
 20
13.0232198428
 30
0.0
 40
0.0444409406785686
 50
134.5948193219
 51
177.5522287263
  0
LINE
  5
35B
  8
0
  6
CONTINUOUS
 62
     7
 10
12.9726680472
 20
13.024950156
 30
0.0
 11
15.7774469127
 21
11.445737081
 31
0.0
  0
LINE
  5
35C
  8
0
  6
CONTINUOUS
 62
     7
 10
12.9726662444
 20
13.0251178564
 30
0.0
 11
12.9726680472
 21
13.024950156
 31
0.0
  0
ARC
  5
35D
  8
0
  6
CONTINUOUS
 62
     7
 10
12.9867968188
 20
13.0237123703
 30
0.0
 40
0.014182887653524
 50
174.9932459629
 51
234.9237884181
  0
POLYLINE
  5
35E
  8
0
  6
CONTINUOUS
 62
     7
 66
     1
 10
0.0
 20
0.0
 30
0.0
  0
VERTEX
  5
702
  8
0
  6
CONTINUOUS
 62
     7
 10
16.2720590438
 20
11.7098654054
 30
0.0
  0
VERTEX
  5
703
  8
0
  6
CONTINUOUS
 62
     7
 10
16.2742034678
 20
11.6951022129
 30
0.0
  0
VERTEX
  5
704
  8
0
  6
CONTINUOUS
 62
     7
 10
16.2822918562
 20
11.6815668972
 30
0.0
  0
VERTEX
  5
705
  8
0
  6
CONTINUOUS
 62
     7
 10
16.2922800148
 20
11.6760271161
 30
0.0
  0
VERTEX
  5
706
  8
0
  6
CONTINUOUS
 62
     7
 10
16.3059681295
 20
11.6757724106
 30
0.0
  0
VERTEX
  5
707
  8
0
  6
CONTINUOUS
 62
     7
 10
16.3219998369
 20
11.6821665003
 30
0.0
  0
VERTEX
  5
708
  8
0
  6
CONTINUOUS
 62
     7
 10
16.3379654217
 20
11.6947115973
 30
0.0
  0
VERTEX
  5
709
  8
0
  6
CONTINUOUS
 62
     7
 10
16.3514750053
 20
11.7110646116
 30
0.0
  0
VERTEX
  5
70A
  8
0
  6
CONTINUOUS
 62
     7
 10
16.3612185102
 20
11.7282835578
 30
0.0
  0
VERTEX
  5
70B
  8
0
  6
CONTINUOUS
 62
     7
 10
16.3689154526
 20
11.7511622056
 30
0.0
  0
VERTEX
  5
70C
  8
0
  6
CONTINUOUS
 62
     7
 10
16.3707173614
 20
11.7682612312
 30
0.0
  0
VERTEX
  5
70D
  8
0
  6
CONTINUOUS
 62
     7
 10
16.3685729374
 20
11.7830244237
 30
0.0
  0
VERTEX
  5
70E
  8
0
  6
CONTINUOUS
 62
     7
 10
16.360484549
 20
11.7965597394
 30
0.0
  0
VERTEX
  5
70F
  8
0
  6
CONTINUOUS
 62
     7
 10
16.3504963904
 20
11.8020995205
 30
0.0
  0
VERTEX
  5
710
  8
0
  6
CONTINUOUS
 62
     7
 10
16.3368082757
 20
11.802354226
 30
0.0
  0
VERTEX
  5
711
  8
0
  6
CONTINUOUS
 62
     7
 10
16.3207765683
 20
11.7959601363
 30
0.0
  0
VERTEX
  5
712
  8
0
  6
CONTINUOUS
 62
     7
 10
16.3048109835
 20
11.7834150393
 30
0.0
  0
VERTEX
  5
713
  8
0
  6
CONTINUOUS
 62
     7
 10
16.2913013999
 20
11.767062025
 30
0.0
  0
VERTEX
  5
714
  8
0
  6
CONTINUOUS
 62
     7
 10
16.281557895
 20
11.7498430788
 30
0.0
  0
VERTEX
  5
715
  8
0
  6
CONTINUOUS
 62
     7
 10
16.2738609526
 20
11.726964431
 30
0.0
  0
VERTEX
  5
716
  8
0
  6
CONTINUOUS
 62
     7
 10
16.2720590438
 20
11.7098654054
 30
0.0
  0
SEQEND
  5
701
  8
0
  6
CONTINUOUS
 62
     7
  0
ARC
  5
35F
  8
0
  6
CONTINUOUS
 62
     7
 10
16.255908891
 20
11.7074800459
 30
0.0
 40
0.0457299216338095
 50
170.9637977548
 51
240.966338795
  0
LINE
  5
360
  8
0
  6
CONTINUOUS
 62
     7
 10
16.2355416214
 20
10.8478077597
 30
0.0
 11
16.2632035992
 21
10.8641808753
 31
0.0
  0
LINE
  5
361
  8
0
  6
CONTINUOUS
 62
     7
 10
16.3744527621
 20
10.9300292183
 30
0.0
 11
18.4508445531
 21
12.159044838
 31
0.0
  0
POLYLINE
  5
362
  8
0
  6
CONTINUOUS
 62
     7
 66
     1
 10
0.0
 20
0.0
 30
0.0
  0
VERTEX
  5
718
  8
0
  6
CONTINUOUS
 62
     7
 10
16.1912463092
 20
10.8723754842
 30
0.0
  0
VERTEX
  5
719
  8
0
  6
CONTINUOUS
 62
     7
 10
16.1953594715
 20
10.8538769509
 30
0.0
  0
VERTEX
  5
71A
  8
0
  6
CONTINUOUS
 62
     7
 10
16.2077014569
 20
10.842819913
 30
0.0
  0
VERTEX
  5
71B
  8
0
  6
CONTINUOUS
 62
     7
 10
16.2213536471
 20
10.8421426481
 30
0.0
  0
VERTEX
  5
71C
  8
0
  6
CONTINUOUS
 62
     7
 10
16.2355416214
 20
10.8478077597
 30
0.0
  0
SEQEND
  5
717
  8
0
  6
CONTINUOUS
 62
     7
  0
LINE
  5
363
  8
0
  6
CONTINUOUS
 62
     7
 10
16.1899654489
 20
10.9915265381
 30
0.0
 11
16.1912463092
 21
10.8723754842
 31
0.0
  0
LINE
  5
364
  8
0
  6
CONTINUOUS
 62
     7
 10
16.2069106748
 20
11.0214725315
 30
0.0
 11
16.1899654489
 21
10.9915265381
 31
0.0
  0
LINE
  5
365
  8
0
  6
CONTINUOUS
 62
     7
 10
16.200218102
 20
11.6440440183
 30
0.0
 11
16.2069106748
 21
11.0214725315
 31
0.0
  0
LINE
  5
366
  8
0
  6
CONTINUOUS
 62
     7
 10
16.1828473913
 20
11.6536784201
 30
0.0
 11
16.200218102
 21
11.6440440183
 31
0.0
  0
LINE
  5
367
  8
0
  6
CONTINUOUS
 62
     7
 10
16.181566531
 20
11.7728294739
 30
0.0
 11
16.1828473913
 21
11.6536784201
 31
0.0
  0
ARC
  5
368
  8
0
  6
CONTINUOUS
 62
     7
 10
16.2766349999
 20
11.7694407034
 30
0.0
 40
0.0951288469796033
 50
123.0339461512
 51
177.9585231515
  0
LINE
  5
369
  8
0
  6
CONTINUOUS
 62
     7
 10
16.4224488453
 20
11.966193742
 30
0.0
 11
16.2247768571
 21
11.849191757
 31
0.0
  0
LINE
  5
36A
  8
0
  6
CONTINUOUS
 62
     7
 10
16.4398195559
 20
11.9565593402
 30
0.0
 11
16.4224488453
 21
11.966193742
 31
0.0
  0
LINE
  5
36B
  8
0
  6
CONTINUOUS
 62
     7
 10
18.2750114541
 20
13.0428088225
 30
0.0
 11
16.4398195559
 21
11.9565593402
 31
0.0
  0
LINE
  5
36C
  8
0
  6
CONTINUOUS
 62
     7
 10
18.29195668
 20
13.0727548158
 30
0.0
 11
18.2750114541
 21
13.0428088225
 31
0.0
  0
LINE
  5
36D
  8
0
  6
CONTINUOUS
 62
     7
 10
18.4896286682
 20
13.1897568008
 30
0.0
 11
18.29195668
 21
13.0727548158
 31
0.0
  0
POLYLINE
  5
36E
  8
0
  6
CONTINUOUS
 62
     7
 66
     1
 10
0.0
 20
0.0
 30
0.0
  0
VERTEX
  5
71E
  8
0
  6
CONTINUOUS
 62
     7
 10
18.5339239803
 20
13.1651890762
 30
0.0
  0
VERTEX
  5
71F
  8
0
  6
CONTINUOUS
 62
     7
 10
18.5298108181
 20
13.1836876096
 30
0.0
  0
VERTEX
  5
720
  8
0
  6
CONTINUOUS
 62
     7
 10
18.5174688326
 20
13.1947446475
 30
0.0
  0
VERTEX
  5
721
  8
0
  6
CONTINUOUS
 62
     7
 10
18.5038166424
 20
13.1954219124
 30
0.0
  0
VERTEX
  5
722
  8
0
  6
CONTINUOUS
 62
     7
 10
18.4896286682
 20
13.1897568008
 30
0.0
  0
SEQEND
  5
71D
  8
0
  6
CONTINUOUS
 62
     7
  0
LINE
  5
36F
  8
0
  6
CONTINUOUS
 62
     7
 10
18.5341740472
 20
13.1419267969
 30
0.0
 11
18.5339239803
 21
13.1651890762
 31
0.0
  0
LINE
  5
370
  8
0
  6
CONTINUOUS
 62
     7
 10
18.5249521875
 20
12.3935205422
 30
0.0
 11
18.518734715
 21
12.9718961887
 31
0.0
  0
LINE
  5
371
  8
0
  6
CONTINUOUS
 62
     7
 10
18.5423228982
 20
12.3838861404
 30
0.0
 11
18.5249521875
 21
12.3935205422
 31
0.0
  0
LINE
  5
372
  8
0
  6
CONTINUOUS
 62
     7
 10
18.5426837423
 20
12.3503188939
 30
0.0
 11
18.5423228982
 21
12.3838861404
 31
0.0
  0
POLYLINE
  5
373
  8
0
  6
CONTINUOUS
 62
     7
 66
     1
 10
0.0
 20
0.0
 30
0.0
  0
VERTEX
  5
724
  8
0
  6
CONTINUOUS
 62
     7
 10
18.3095597674
 20
12.5162424702
 30
0.0
  0
VERTEX
  5
725
  8
0
  6
CONTINUOUS
 62
     7
 10
18.3080254599
 20
12.5268053425
 30
0.0
  0
VERTEX
  5
726
  8
0
  6
CONTINUOUS
 62
     7
 10
18.2918486832
 20
12.5538759739
 30
0.0
  0
VERTEX
  5
727
  8
0
  6
CONTINUOUS
 62
     7
 10
18.2718723659
 20
12.5649555359
 30
0.0
  0
VERTEX
  5
728
  8
0
  6
CONTINUOUS
 62
     7
 10
18.2444961365
 20
12.5654649471
 30
0.0
  0
VERTEX
  5
729
  8
0
  6
CONTINUOUS
 62
     7
 10
18.2124327217
 20
12.5526767677
 30
0.0
  0
VERTEX
  5
72A
  8
0
  6
CONTINUOUS
 62
     7
 10
18.1805015521
 20
12.5275865736
 30
0.0
  0
VERTEX
  5
72B
  8
0
  6
CONTINUOUS
 62
     7
 10
18.1637231567
 20
12.5072767441
 30
0.0
  0
SEQEND
  5
723
  8
0
  6
CONTINUOUS
 62
     7
  0
POLYLINE
  5
374
  8
0
  6
CONTINUOUS
 62
     7
 66
     1
 10
0.0
 20
0.0
 30
0.0
  0
VERTEX
  5
72D
  8
0
  6
CONTINUOUS
 62
     7
 10
17.7270499797
 20
12.3281146591
 30
0.0
  0
VERTEX
  5
72E
  8
0
  6
CONTINUOUS
 62
     7
 10
17.7302463951
 20
12.2940923021
 30
0.0
  0
VERTEX
  5
72F
  8
0
  6
CONTINUOUS
 62
     7
 10
17.7410666567
 20
12.2598106652
 30
0.0
  0
VERTEX
  5
730
  8
0
  6
CONTINUOUS
 62
     7
 10
17.7626423705
 20
12.2296850652
 30
0.0
  0
VERTEX
  5
731
  8
0
  6
CONTINUOUS
 62
     7
 10
17.7973837917
 20
12.2104162616
 30
0.0
  0
VERTEX
  5
732
  8
0
  6
CONTINUOUS
 62
     7
 10
17.8449946256
 20
12.2095303292
 30
0.0
  0
VERTEX
  5
733
  8
0
  6
CONTINUOUS
 62
     7
 10
17.8694027765
 20
12.2192652815
 30
0.0
  0
SEQEND
  5
72C
  8
0
  6
CONTINUOUS
 62
     7
  0
POLYLINE
  5
375
  8
0
  6
CONTINUOUS
 62
     7
 66
     1
 10
0.0
 20
0.0
 30
0.0
  0
VERTEX
  5
735
  8
0
  6
CONTINUOUS
 62
     7
 10
18.0673625129
 20
12.5615319976
 30
0.0
  0
VERTEX
  5
736
  8
0
  6
CONTINUOUS
 62
     7
 10
18.0670129295
 20
12.5652529318
 30
0.0
  0
VERTEX
  5
737
  8
0
  6
CONTINUOUS
 62
     7
 10
18.0561926679
 20
12.5995345687
 30
0.0
  0
VERTEX
  5
738
  8
0
  6
CONTINUOUS
 62
     7
 10
18.0346169542
 20
12.6296601687
 30
0.0
  0
VERTEX
  5
739
  8
0
  6
CONTINUOUS
 62
     7
 10
17.9998755329
 20
12.6489289723
 30
0.0
  0
VERTEX
  5
73A
  8
0
  6
CONTINUOUS
 62
     7
 10
17.9522646991
 20
12.6498149047
 30
0.0
  0
VERTEX
  5
73B
  8
0
  6
CONTINUOUS
 62
     7
 10
17.8965022385
 20
12.6275745927
 30
0.0
  0
VERTEX
  5
73C
  8
0
  6
CONTINUOUS
 62
     7
 10
17.8409697698
 20
12.5839394725
 30
0.0
  0
VERTEX
  5
73D
  8
0
  6
CONTINUOUS
 62
     7
 10
17.7939799137
 20
12.5270594228
 30
0.0
  0
VERTEX
  5
73E
  8
0
  6
CONTINUOUS
 62
     7
 10
17.7600894619
 20
12.4671674361
 30
0.0
  0
VERTEX
  5
73F
  8
0
  6
CONTINUOUS
 62
     7
 10
17.7394301769
 20
12.4120429542
 30
0.0
  0
VERTEX
  5
740
  8
0
  6
CONTINUOUS
 62
     7
 10
17.7294791275
 20
12.3654667852
 30
0.0
  0
VERTEX
  5
741
  8
0
  6
CONTINUOUS
 62
     7
 10
17.7270499797
 20
12.3281146591
 30
0.0
  0
SEQEND
  5
734
  8
0
  6
CONTINUOUS
 62
     7
  0
POLYLINE
  5
376
  8
0
  6
CONTINUOUS
 62
     7
 66
     1
 10
0.0
 20
0.0
 30
0.0
  0
VERTEX
  5
743
  8
0
  6
CONTINUOUS
 62
     7
 10
17.2208899158
 20
12.0285186834
 30
0.0
  0
VERTEX
  5
744
  8
0
  6
CONTINUOUS
 62
     7
 10
17.2240863313
 20
11.9944963264
 30
0.0
  0
VERTEX
  5
745
  8
0
  6
CONTINUOUS
 62
     7
 10
17.2349065929
 20
11.9602146895
 30
0.0
  0
VERTEX
  5
746
  8
0
  6
CONTINUOUS
 62
     7
 10
17.2564823066
 20
11.9300890895
 30
0.0
  0
VERTEX
  5
747
  8
0
  6
CONTINUOUS
 62
     7
 10
17.2912237279
 20
11.9108202859
 30
0.0
  0
VERTEX
  5
748
  8
0
  6
CONTINUOUS
 62
     7
 10
17.3388345617
 20
11.9099343535
 30
0.0
  0
VERTEX
  5
749
  8
0
  6
CONTINUOUS
 62
     7
 10
17.3632427126
 20
11.9196693058
 30
0.0
  0
SEQEND
  5
742
  8
0
  6
CONTINUOUS
 62
     7
  0
POLYLINE
  5
377
  8
0
  6
CONTINUOUS
 62
     7
 66
     1
 10
0.0
 20
0.0
 30
0.0
  0
VERTEX
  5
74B
  8
0
  6
CONTINUOUS
 62
     7
 10
17.5612024491
 20
12.2619360219
 30
0.0
  0
VERTEX
  5
74C
  8
0
  6
CONTINUOUS
 62
     7
 10
17.5608528657
 20
12.2656569561
 30
0.0
  0
VERTEX
  5
74D
  8
0
  6
CONTINUOUS
 62
     7
 10
17.5500326041
 20
12.299938593
 30
0.0
  0
VERTEX
  5
74E
  8
0
  6
CONTINUOUS
 62
     7
 10
17.5284568903
 20
12.330064193
 30
0.0
  0
VERTEX
  5
74F
  8
0
  6
CONTINUOUS
 62
     7
 10
17.493715469
 20
12.3493329966
 30
0.0
  0
VERTEX
  5
750
  8
0
  6
CONTINUOUS
 62
     7
 10
17.4461046352
 20
12.350218929
 30
0.0
  0
VERTEX
  5
751
  8
0
  6
CONTINUOUS
 62
     7
 10
17.3903421747
 20
12.327978617
 30
0.0
  0
VERTEX
  5
752
  8
0
  6
CONTINUOUS
 62
     7
 10
17.3348097059
 20
12.2843434969
 30
0.0
  0
VERTEX
  5
753
  8
0
  6
CONTINUOUS
 62
     7
 10
17.2878198499
 20
12.2274634471
 30
0.0
  0
VERTEX
  5
754
  8
0
  6
CONTINUOUS
 62
     7
 10
17.2539293981
 20
12.1675714604
 30
0.0
  0
VERTEX
  5
755
  8
0
  6
CONTINUOUS
 62
     7
 10
17.233270113
 20
12.1124469785
 30
0.0
  0
VERTEX
  5
756
  8
0
  6
CONTINUOUS
 62
     7
 10
17.2233190637
 20
12.0658708095
 30
0.0
  0
VERTEX
  5
757
  8
0
  6
CONTINUOUS
 62
     7
 10
17.2208899158
 20
12.0285186834
 30
0.0
  0
SEQEND
  5
74A
  8
0
  6
CONTINUOUS
 62
     7
  0
ARC
  5
378
  8
0
  6
CONTINUOUS
 62
     7
 10
16.4843024369
 20
11.5157498105
 30
0.0
 40
0.1029361234861426
 50
170.6868139843
 51
278.1618247107
  0
POLYLINE
  5
379
  8
0
  6
CONTINUOUS
 62
     7
 66
     1
 10
0.0
 20
0.0
 30
0.0
  0
VERTEX
  5
759
  8
0
  6
CONTINUOUS
 62
     7
 10
16.7146610011
 20
11.7949721565
 30
0.0
  0
VERTEX
  5
75A
  8
0
  6
CONTINUOUS
 62
     7
 10
16.7118658543
 20
11.8038279689
 30
0.0
  0
VERTEX
  5
75B
  8
0
  6
CONTINUOUS
 62
     7
 10
16.6902901405
 20
11.8339535688
 30
0.0
  0
VERTEX
  5
75C
  8
0
  6
CONTINUOUS
 62
     7
 10
16.6555487193
 20
11.8532223724
 30
0.0
  0
VERTEX
  5
75D
  8
0
  6
CONTINUOUS
 62
     7
 10
16.6079378854
 20
11.8541083048
 30
0.0
  0
VERTEX
  5
75E
  8
0
  6
CONTINUOUS
 62
     7
 10
16.5521754249
 20
11.8318679928
 30
0.0
  0
VERTEX
  5
75F
  8
0
  6
CONTINUOUS
 62
     7
 10
16.4966429561
 20
11.7882328727
 30
0.0
  0
VERTEX
  5
760
  8
0
  6
CONTINUOUS
 62
     7
 10
16.4496531001
 20
11.731352823
 30
0.0
  0
VERTEX
  5
761
  8
0
  6
CONTINUOUS
 62
     7
 10
16.4157626483
 20
11.6714608363
 30
0.0
  0
VERTEX
  5
762
  8
0
  6
CONTINUOUS
 62
     7
 10
16.3951033632
 20
11.6163363544
 30
0.0
  0
VERTEX
  5
763
  8
0
  6
CONTINUOUS
 62
     7
 10
16.3851523139
 20
11.5697601853
 30
0.0
  0
VERTEX
  5
764
  8
0
  6
CONTINUOUS
 62
     7
 10
16.382723166
 20
11.5324080592
 30
0.0
  0
SEQEND
  5
758
  8
0
  6
CONTINUOUS
 62
     7
  0
LINE
  5
37A
  8
0
  6
CONTINUOUS
 62
     7
 10
16.822484907
 20
11.5586884827
 30
0.0
 11
16.8961496125
 21
11.6022905977
 31
0.0
  0
LINE
  5
37B
  8
0
  6
CONTINUOUS
 62
     7
 10
17.0383409975
 20
11.6864536319
 30
0.0
 11
17.1058575561
 21
11.7264166607
 31
0.0
  0
LINE
  5
37C
  8
0
  6
CONTINUOUS
 62
     7
 10
17.1058575561
 20
11.7264166607
 30
0.0
 11
17.1042619883
 21
11.8748431426
 31
0.0
  0
LINE
  5
37D
  8
0
  6
CONTINUOUS
 62
     7
 10
17.1042619883
 20
11.8748431426
 30
0.0
 11
16.8260517456
 21
11.7101705912
 31
0.0
  0
LINE
  5
37E
  8
0
  6
CONTINUOUS
 62
     7
 10
16.2247768571
 20
11.849191757
 30
0.0
 11
16.1998739498
 21
11.8632131821
 31
0.0
  0
LINE
  5
37F
  8
0
  6
CONTINUOUS
 62
     7
 10
16.181566531
 20
11.7728294739
 30
0.0
 11
16.1566636238
 21
11.786850899
 31
0.0
  0
ARC
  5
380
  8
0
  6
CONTINUOUS
 62
     7
 10
16.2517320926
 20
11.7834621284
 30
0.0
 40
0.0951288469796198
 50
123.0339461512
 51
177.9585231515
  0
LINE
  5
381
  8
0
  6
CONTINUOUS
 62
     7
 10
16.3300735579
 20
11.7342461174
 30
0.0
 11
16.3558105103
 21
11.7494798111
 31
0.0
  0
LINE
  5
382
  8
0
  6
CONTINUOUS
 62
     7
 10
16.3558105103
 20
11.7494798111
 30
0.0
 11
16.3555977679
 21
11.7692700087
 31
0.0
  0
LINE
  5
383
  8
0
  6
CONTINUOUS
 62
     7
 10
16.3555977679
 20
11.7692700087
 30
0.0
 11
16.3298608155
 21
11.754036315
 31
0.0
  0
LINE
  5
384
  8
0
  6
CONTINUOUS
 62
     7
 10
16.3298608155
 20
11.754036315
 30
0.0
 11
16.329541702
 21
11.7837216113
 31
0.0
  0
LINE
  5
385
  8
0
  6
CONTINUOUS
 62
     7
 10
16.329541702
 20
11.7837216113
 30
0.0
 11
16.3123837337
 21
11.7735658156
 31
0.0
  0
LINE
  5
386
  8
0
  6
CONTINUOUS
 62
     7
 10
16.3123837337
 20
11.7735658156
 30
0.0
 11
16.3127028473
 21
11.7438805192
 31
0.0
  0
LINE
  5
387
  8
0
  6
CONTINUOUS
 62
     7
 10
16.3127028473
 20
11.7438805192
 30
0.0
 11
16.2869658949
 21
11.7286468255
 31
0.0
  0
LINE
  5
388
  8
0
  6
CONTINUOUS
 62
     7
 10
16.2869658949
 20
11.7286468255
 30
0.0
 11
16.2871786372
 21
11.7088566279
 31
0.0
  0
LINE
  5
389
  8
0
  6
CONTINUOUS
 62
     7
 10
16.2871786372
 20
11.7088566279
 30
0.0
 11
16.3129155896
 21
11.7240903216
 31
0.0
  0
LINE
  5
38A
  8
0
  6
CONTINUOUS
 62
     7
 10
16.3129155896
 20
11.7240903216
 30
0.0
 11
16.3132347032
 21
11.6944050253
 31
0.0
  0
LINE
  5
38B
  8
0
  6
CONTINUOUS
 62
     7
 10
16.3132347032
 20
11.6944050253
 30
0.0
 11
16.3303926715
 21
11.704560821
 31
0.0
  0
LINE
  5
38C
  8
0
  6
CONTINUOUS
 62
     7
 10
16.3303926715
 20
11.704560821
 30
0.0
 11
16.3300735579
 21
11.7342461174
 31
0.0
  0
LINE
  5
38D
  8
0
  6
CONTINUOUS
 62
     7
 10
16.1998845869
 20
11.8622236722
 30
0.0
 11
13.3951057214
 21
13.4414367472
 31
0.0
  0
LINE
  5
38E
  8
0
  6
CONTINUOUS
 62
     7
 10
13.3547285765
 20
13.3833208105
 30
0.0
 11
16.1595074421
 21
11.8041077355
 31
0.0
  0
ARC
  5
38F
  8
0
  6
CONTINUOUS
 62
     7
 10
13.447973941
 20
13.3616211924
 30
0.0
 40
0.0957369909302443
 50
123.5196909513
 51
166.8995674455
  0
ARC
  5
390
  8
0
  6
CONTINUOUS
 62
     7
 10
15.8397662106
 20
10.7703144147
 30
0.0
 40
0.0433440178031178
 50
123.2282599059
 51
178.0089154327
  0
LINE
  5
391
  8
0
  6
CONTINUOUS
 62
     7
 10
16.1472680571
 20
11.0026401644
 30
0.0
 11
15.8160147346
 21
10.8065714315
 31
0.0
  0
ARC
  5
392
  8
0
  6
CONTINUOUS
 62
     7
 10
16.1235165811
 20
11.0388971812
 30
0.0
 40
0.0433440178031092
 50
303.2282599059
 51
358.0089154327
  0
LINE
  5
393
  8
0
  6
CONTINUOUS
 62
     7
 10
16.166832627
 20
11.0375589377
 30
0.0
 11
16.1668344297
 21
11.0373912372
 31
0.0
  0
ARC
  5
394
  8
0
  6
CONTINUOUS
 62
     7
 10
16.1546584481
 20
11.0393996726
 30
0.0
 40
0.0123125519347306
 50
351.4020084688
 51
129.8351668698
  0
LINE
  5
395
  8
0
  6
CONTINUOUS
 62
     7
 10
15.8407459612
 20
10.8677180905
 30
0.0
 11
16.1467712596
 21
11.0488543642
 31
0.0
  0
ARC
  5
396
  8
0
  6
CONTINUOUS
 62
     7
 10
15.8328587727
 20
10.877172782
 30
0.0
 40
0.0123125519347271
 50
171.4020084688
 51
309.8351668698
  0
LINE
  5
397
  8
0
  6
CONTINUOUS
 62
     7
 10
15.8206827911
 20
10.8791812175
 30
0.0
 11
15.8206845939
 21
10.879013517
 31
0.0
  0
ARC
  5
398
  8
0
  6
CONTINUOUS
 62
     7
 10
15.8640006398
 20
10.8776752734
 30
0.0
 40
0.0433440178031085
 50
123.2282599059
 51
178.0089154327
  0
LINE
  5
399
  8
0
  6
CONTINUOUS
 62
     7
 10
16.1462744622
 20
11.095068564
 30
0.0
 11
15.8402491638
 21
10.9139322903
 31
0.0
  0
ARC
  5
39A
  8
0
  6
CONTINUOUS
 62
     7
 10
16.1225229863
 20
11.1313255808
 30
0.0
 40
0.0433440178031095
 50
303.2282599059
 51
358.0089154327
  0
LINE
  5
39B
  8
0
  6
CONTINUOUS
 62
     7
 10
16.1658390322
 20
11.1299873373
 30
0.0
 11
16.1658408349
 21
11.1298196368
 31
0.0
  0
ARC
  5
39C
  8
0
  6
CONTINUOUS
 62
     7
 10
16.1536648533
 20
11.1318280722
 30
0.0
 40
0.0123125519347298
 50
351.4020084688
 51
129.8351668698
  0
LINE
  5
39D
  8
0
  6
CONTINUOUS
 62
     7
 10
15.856118672
 20
10.969833701
 30
0.0
 11
16.1457776648
 21
11.1412827638
 31
0.0
  0
ARC
  5
39E
  8
0
  6
CONTINUOUS
 62
     7
 10
15.8482314835
 20
10.9792883926
 30
0.0
 40
0.0123125519347279
 50
171.4020084688
 51
309.8351668698
  0
LINE
  5
39F
  8
0
  6
CONTINUOUS
 62
     7
 10
15.836055502
 20
10.981296828
 30
0.0
 11
15.8360573047
 21
10.9811291275
 31
0.0
  0
ARC
  5
3A0
  8
0
  6
CONTINUOUS
 62
     7
 10
15.8793733506
 20
10.979790884
 30
0.0
 40
0.043344017803111
 50
123.2282599059
 51
178.0089154327
  0
LINE
  5
3A1
  8
0
  6
CONTINUOUS
 62
     7
 10
16.1452808674
 20
11.1874969636
 30
0.0
 11
15.8556218746
 21
11.0160479008
 31
0.0
  0
ARC
  5
3A2
  8
0
  6
CONTINUOUS
 62
     7
 10
16.1215293915
 20
11.2237539804
 30
0.0
 40
0.043344017803106
 50
303.2282599059
 51
358.0089154327
  0
LINE
  5
3A3
  8
0
  6
CONTINUOUS
 62
     7
 10
16.1648454373
 20
11.2224157369
 30
0.0
 11
16.1648472401
 21
11.2222480364
 31
0.0
  0
ARC
  5
3A4
  8
0
  6
CONTINUOUS
 62
     7
 10
16.1526712585
 20
11.2242564718
 30
0.0
 40
0.0123125519347269
 50
351.4020084688
 51
129.8351668698
  0
LINE
  5
3A5
  8
0
  6
CONTINUOUS
 62
     7
 10
15.8631810042
 20
11.0670304011
 30
0.0
 11
16.14478407
 21
11.2337111634
 31
0.0
  0
ARC
  5
3A6
  8
0
  6
CONTINUOUS
 62
     7
 10
15.8552938157
 20
11.0764850927
 30
0.0
 40
0.0123125519347277
 50
171.4020084688
 51
309.8351668698
  0
LINE
  5
3A7
  8
0
  6
CONTINUOUS
 62
     7
 10
15.8431178341
 20
11.0784935281
 30
0.0
 11
15.8431196369
 21
11.0783258276
 31
0.0
  0
ARC
  5
3A8
  8
0
  6
CONTINUOUS
 62
     7
 10
15.8864356828
 20
11.0769875841
 30
0.0
 40
0.043344017803111
 50
123.2282599059
 51
178.0089154327
  0
LINE
  5
3A9
  8
0
  6
CONTINUOUS
 62
     7
 10
16.1442872726
 20
11.2799253632
 30
0.0
 11
15.8626842068
 21
11.1132446009
 31
0.0
  0
ARC
  5
3AA
  8
0
  6
CONTINUOUS
 62
     7
 10
16.1205357967
 20
11.31618238
 30
0.0
 40
0.0433440178031174
 50
303.2282599059
 51
358.0089154327
  0
LINE
  5
3AB
  8
0
  6
CONTINUOUS
 62
     7
 10
16.1638518425
 20
11.3148441365
 30
0.0
 11
16.1638536453
 21
11.314676436
 31
0.0
  0
ARC
  5
3AC
  8
0
  6
CONTINUOUS
 62
     7
 10
16.1516776637
 20
11.3166848714
 30
0.0
 40
0.0123125519347309
 50
351.4020084688
 51
129.8351668698
  0
LINE
  5
3AD
  8
0
  6
CONTINUOUS
 62
     7
 10
15.8621874094
 20
11.1594588007
 30
0.0
 11
16.1437904752
 21
11.326139563
 31
0.0
  0
ARC
  5
3AE
  8
0
  6
CONTINUOUS
 62
     7
 10
15.8543002209
 20
11.1689134923
 30
0.0
 40
0.0123125519347266
 50
171.4020084688
 51
309.8351668698
  0
LINE
  5
3AF
  8
0
  6
CONTINUOUS
 62
     7
 10
15.8421242393
 20
11.1709219277
 30
0.0
 11
15.8421260421
 21
11.1707542272
 31
0.0
  0
ARC
  5
3B0
  8
0
  6
CONTINUOUS
 62
     7
 10
15.885442088
 20
11.1694159837
 30
0.0
 40
0.0433440178031139
 50
123.2282599059
 51
178.0089154327
  0
LINE
  5
3B1
  8
0
  6
CONTINUOUS
 62
     7
 10
16.1592087122
 20
11.3817738664
 30
0.0
 11
15.861690612
 21
11.2056730005
 31
0.0
  0
ARC
  5
3B2
  8
0
  6
CONTINUOUS
 62
     7
 10
16.1347896584
 20
11.4185989949
 30
0.0
 40
0.0441857474127026
 50
303.548694201
 51
347.8720934159
  0
LINE
  5
3B3
  8
0
  6
CONTINUOUS
 62
     7
 10
16.1779892252
 20
11.4093158
 30
0.0
 11
16.1820077676
 21
11.0354939565
 31
0.0
  0
LINE
  5
3B4
  8
0
  6
CONTINUOUS
 62
     7
 10
16.1820077676
 20
11.0354939565
 30
0.0
 11
16.1650625417
 21
11.0055479632
 31
0.0
  0
LINE
  5
3B5
  8
0
  6
CONTINUOUS
 62
     7
 10
16.1650625417
 20
11.0055479632
 30
0.0
 11
16.1656533507
 21
10.9505884055
 31
0.0
  0
POLYLINE
  5
3B6
  8
0
  6
CONTINUOUS
 62
     7
 66
     1
 10
0.0
 20
0.0
 30
0.0
  0
VERTEX
  5
766
  8
0
  6
CONTINUOUS
 62
     7
 10
16.1465219206
 20
10.9556902724
 30
0.0
  0
VERTEX
  5
767
  8
0
  6
CONTINUOUS
 62
     7
 10
16.1496706501
 20
10.9572601585
 30
0.0
  0
VERTEX
  5
768
  8
0
  6
CONTINUOUS
 62
     7
 10
16.1527457909
 20
10.9582062487
 30
0.0
  0
VERTEX
  5
769
  8
0
  6
CONTINUOUS
 62
     7
 10
16.1556693433
 20
10.958504546
 30
0.0
  0
VERTEX
  5
76A
  8
0
  6
CONTINUOUS
 62
     7
 10
16.1583671524
 20
10.9581474842
 30
0.0
  0
VERTEX
  5
76B
  8
0
  6
CONTINUOUS
 62
     7
 10
16.1607707892
 20
10.9571441199
 30
0.0
  0
VERTEX
  5
76C
  8
0
  6
CONTINUOUS
 62
     7
 10
16.1628192865
 20
10.9555199031
 30
0.0
  0
VERTEX
  5
76D
  8
0
  6
CONTINUOUS
 62
     7
 10
16.1644606848
 20
10.9533160315
 30
0.0
  0
VERTEX
  5
76E
  8
0
  6
CONTINUOUS
 62
     7
 10
16.1656533507
 20
10.9505884055
 30
0.0
  0
SEQEND
  5
765
  8
0
  6
CONTINUOUS
 62
     7
  0
LINE
  5
3B7
  8
0
  6
CONTINUOUS
 62
     7
 10
15.816511532
 20
10.7603572317
 30
0.0
 11
16.1465219206
 21
10.9556902724
 31
0.0
  0
ARC
  5
3B8
  8
0
  6
CONTINUOUS
 62
     7
 10
15.8086243435
 20
10.7698119233
 30
0.0
 40
0.0123125519347256
 50
171.4020084688
 51
309.8351668698
  0
LINE
  5
3B9
  8
0
  6
CONTINUOUS
 62
     7
 10
15.7964483619
 20
10.7718203587
 30
0.0
 11
15.7964501647
 21
10.7716526583
 31
0.0
  0
ARC
  5
3BA
  8
0
  6
CONTINUOUS
 62
     7
 10
13.3116990316
 20
13.393219275
 30
0.0
 40
0.0441533841869975
 50
303.5361646374
 51
347.0451246214
  0
LINE
  5
3BB
  8
0
  6
CONTINUOUS
 62
     7
 10
16.1828473913
 20
11.6536784201
 30
0.0
 11
16.1579444841
 21
11.6676998451
 31
0.0
  0
LINE
  5
3BC
  8
0
  6
CONTINUOUS
 62
     7
 10
16.1573390903
 20
11.7240161468
 30
0.0
 11
16.1574849705
 21
11.7104457476
 31
0.0
  0
LINE
  5
3BD
  8
0
  6
CONTINUOUS
 62
     7
 10
16.1566636238
 20
11.786850899
 30
0.0
 11
16.1566668343
 21
11.7865522469
 31
0.0
  0
LINE
  5
3BE
  8
0
  6
CONTINUOUS
 62
     7
 10
16.4224488453
 20
11.966193742
 30
0.0
 11
16.397545938
 21
11.980215167
 31
0.0
  0
LINE
  5
3BF
  8
0
  6
CONTINUOUS
 62
     7
 10
16.397545938
 20
11.980215167
 30
0.0
 11
16.1998739498
 21
11.8632131821
 31
0.0
  0
LINE
  5
3C0
  8
0
  6
CONTINUOUS
 62
     7
 10
16.3963390101
 20
11.9795007867
 30
0.0
 11
13.5924223564
 21
13.5582283987
 31
0.0
  0
LINE
  5
3C1
  8
0
  6
CONTINUOUS
 62
     7
 10
13.5924223564
 20
13.5582283987
 30
0.0
 11
13.3951057214
 21
13.4414367472
 31
0.0
  0
LINE
  5
3C2
  8
0
  6
CONTINUOUS
 62
     7
 10
16.2989486303
 20
11.7357394027
 30
0.0
 11
16.3129155896
 21
11.7240903216
 31
0.0
  0
LINE
  5
3C3
  8
0
  6
CONTINUOUS
 62
     7
 10
16.3125297367
 20
11.7599840025
 30
0.0
 11
16.3298608155
 21
11.754036315
 31
0.0
  0
LINE
  5
3C4
  8
0
  6
CONTINUOUS
 62
     7
 10
13.0569117464
 20
12.7848860755
 30
0.0
 11
15.861690612
 21
11.2056730005
 31
0.0
  0
LINE
  5
3C5
  8
0
  6
CONTINUOUS
 62
     7
 10
15.8421242393
 20
11.1709219277
 30
0.0
 11
13.0373453738
 21
12.7501350027
 31
0.0
  0
ARC
  5
3C6
  8
0
  6
CONTINUOUS
 62
     7
 10
13.0806632224
 20
12.7486290587
 30
0.0
 40
0.0433440178031134
 50
123.2282599059
 51
178.0089154327
  0
LINE
  5
3C7
  8
0
  6
CONTINUOUS
 62
     7
 10
13.0373471765
 20
12.7499673022
 30
0.0
 11
15.8421260421
 21
11.1707542272
 31
0.0
  0
LINE
  5
3C8
  8
0
  6
CONTINUOUS
 62
     7
 10
13.0373453738
 20
12.7501350027
 30
0.0
 11
13.0373471765
 21
12.7499673022
 31
0.0
  0
LINE
  5
3C9
  8
0
  6
CONTINUOUS
 62
     7
 10
13.2154930064
 20
12.8787502712
 30
0.0
 11
13.0569117464
 21
12.7848860755
 31
0.0
  0
ARC
  5
3CA
  8
0
  6
CONTINUOUS
 62
     7
 10
13.0514759482
 20
12.7487295166
 30
0.0
 40
0.014182887653538
 50
174.9932459629
 51
234.9237884181
  0
LINE
  5
3CB
  8
0
  6
CONTINUOUS
 62
     7
 10
16.3130205335
 20
11.7143279985
 30
0.0
 11
16.3303926715
 21
11.704560821
 31
0.0
  0
LINE
  5
3CC
  8
0
  6
CONTINUOUS
 62
     7
 10
16.3127014199
 20
11.7440132948
 30
0.0
 11
16.3300735579
 21
11.7342461174
 31
0.0
  0
LINE
  5
3CD
  8
0
  6
CONTINUOUS
 62
     7
 10
16.3385541481
 20
11.7591818957
 30
0.0
 11
16.3558105103
 21
11.7494798111
 31
0.0
  0
LINE
  5
3CE
  8
0
  6
CONTINUOUS
 62
     7
 10
13.0579053412
 20
12.6924576759
 30
0.0
 11
15.8626842068
 21
11.1132446009
 31
0.0
  0
LINE
  5
3CF
  8
0
  6
CONTINUOUS
 62
     7
 10
15.8431178341
 20
11.0784935281
 30
0.0
 11
13.0383389686
 21
12.6577066031
 31
0.0
  0
ARC
  5
3D0
  8
0
  6
CONTINUOUS
 62
     7
 10
13.0816568172
 20
12.6562006591
 30
0.0
 40
0.0433440178031085
 50
123.2282599059
 51
178.0089154327
  0
LINE
  5
3D1
  8
0
  6
CONTINUOUS
 62
     7
 10
16.2069106748
 20
11.0214725315
 30
0.0
 11
16.1820077676
 21
11.0354939565
 31
0.0
  0
LINE
  5
3D2
  8
0
  6
CONTINUOUS
 62
     7
 10
16.1754906533
 20
11.641743543
 30
0.0
 11
16.1779892252
 21
11.4093158
 31
0.0
  0
LINE
  5
3D3
  8
0
  6
CONTINUOUS
 62
     7
 10
13.089470231
 20
12.7111409238
 30
0.0
 11
13.0579053412
 21
12.6924576759
 31
0.0
  0
LINE
  5
3D4
  8
0
  6
CONTINUOUS
 62
     7
 10
13.0383407713
 20
12.6575389026
 30
0.0
 11
15.8431196369
 21
11.0783258276
 31
0.0
  0
LINE
  5
3D5
  8
0
  6
CONTINUOUS
 62
     7
 10
13.0383389686
 20
12.6577066031
 30
0.0
 11
13.0383407713
 21
12.6575389026
 31
0.0
  0
ARC
  5
3D6
  8
0
  6
CONTINUOUS
 62
     7
 10
13.052469543
 20
12.656301117
 30
0.0
 40
0.0141828876535243
 50
174.9932459629
 51
234.9237884181
  0
LINE
  5
3D7
  8
0
  6
CONTINUOUS
 62
     7
 10
16.4398195559
 20
11.9565593402
 30
0.0
 11
16.4149166487
 21
11.9705807652
 31
0.0
  0
LINE
  5
3D8
  8
0
  6
CONTINUOUS
 62
     7
 10
16.4149166487
 20
11.9705807652
 30
0.0
 11
16.397545938
 21
11.980215167
 31
0.0
  0
LINE
  5
3D9
  8
0
  6
CONTINUOUS
 62
     7
 10
13.0508430091
 20
12.5952609757
 30
0.0
 11
15.8556218746
 21
11.0160479008
 31
0.0
  0
LINE
  5
3DA
  8
0
  6
CONTINUOUS
 62
     7
 10
15.836055502
 20
10.981296828
 30
0.0
 11
13.0312766364
 21
12.5605099029
 31
0.0
  0
ARC
  5
3DB
  8
0
  6
CONTINUOUS
 62
     7
 10
13.074594485
 20
12.5590039589
 30
0.0
 40
0.0433440178031114
 50
123.2282599059
 51
178.0089154327
  0
LINE
  5
3DC
  8
0
  6
CONTINUOUS
 62
     7
 10
16.3964654816
 20
11.9795756452
 30
0.0
 11
13.6097930671
 21
13.5485939969
 31
0.0
  0
LINE
  5
3DD
  8
0
  6
CONTINUOUS
 62
     7
 10
13.6097930671
 20
13.5485939969
 30
0.0
 11
13.5924223564
 21
13.5582283987
 31
0.0
  0
LINE
  5
3DE
  8
0
  6
CONTINUOUS
 62
     7
 10
13.0312784392
 20
12.5603422025
 30
0.0
 11
15.8360573047
 21
10.9811291275
 31
0.0
  0
LINE
  5
3DF
  8
0
  6
CONTINUOUS
 62
     7
 10
13.0312766364
 20
12.5605099029
 30
0.0
 11
13.0312784392
 21
12.5603422025
 31
0.0
  0
LINE
  5
3E0
  8
0
  6
CONTINUOUS
 62
     7
 10
13.0904638258
 20
12.6187125242
 30
0.0
 11
13.0508430091
 21
12.5952609757
 31
0.0
  0
ARC
  5
3E1
  8
0
  6
CONTINUOUS
 62
     7
 10
13.0454072108
 20
12.5591044168
 30
0.0
 40
0.0141828876535187
 50
174.9932459629
 51
234.9237884181
  0
POLYLINE
  5
3E2
  8
0
  6
CONTINUOUS
 62
     7
 66
     1
 10
0.0
 20
0.0
 30
0.0
  0
VERTEX
  5
770
  8
0
  6
CONTINUOUS
 62
     7
 10
16.5472048873
 20
11.4695223847
 30
0.0
  0
VERTEX
  5
771
  8
0
  6
CONTINUOUS
 62
     7
 10
16.5535449233
 20
11.425874685
 30
0.0
  0
VERTEX
  5
772
  8
0
  6
CONTINUOUS
 62
     7
 10
16.5774584194
 20
11.3858572299
 30
0.0
  0
VERTEX
  5
773
  8
0
  6
CONTINUOUS
 62
     7
 10
16.6069886275
 20
11.3694787468
 30
0.0
  0
VERTEX
  5
774
  8
0
  6
CONTINUOUS
 62
     7
 10
16.6474578363
 20
11.3687257043
 30
0.0
  0
VERTEX
  5
775
  8
0
  6
CONTINUOUS
 62
     7
 10
16.6948559277
 20
11.3876299695
 30
0.0
  0
VERTEX
  5
776
  8
0
  6
CONTINUOUS
 62
     7
 10
16.7420585262
 20
11.4247198216
 30
0.0
  0
VERTEX
  5
777
  8
0
  6
CONTINUOUS
 62
     7
 10
16.7819999039
 20
11.4730678638
 30
0.0
  0
VERTEX
  5
778
  8
0
  6
CONTINUOUS
 62
     7
 10
16.8108067879
 20
11.5239760526
 30
0.0
  0
VERTEX
  5
779
  8
0
  6
CONTINUOUS
 62
     7
 10
16.8335629654
 20
11.5916172722
 30
0.0
  0
VERTEX
  5
77A
  8
0
  6
CONTINUOUS
 62
     7
 10
16.8388903478
 20
11.642170913
 30
0.0
  0
VERTEX
  5
77B
  8
0
  6
CONTINUOUS
 62
     7
 10
16.8325503117
 20
11.6858186127
 30
0.0
  0
VERTEX
  5
77C
  8
0
  6
CONTINUOUS
 62
     7
 10
16.8086368156
 20
11.7258360678
 30
0.0
  0
VERTEX
  5
77D
  8
0
  6
CONTINUOUS
 62
     7
 10
16.7791066075
 20
11.7422145509
 30
0.0
  0
VERTEX
  5
77E
  8
0
  6
CONTINUOUS
 62
     7
 10
16.7386373988
 20
11.7429675934
 30
0.0
  0
VERTEX
  5
77F
  8
0
  6
CONTINUOUS
 62
     7
 10
16.6912393073
 20
11.7240633282
 30
0.0
  0
VERTEX
  5
780
  8
0
  6
CONTINUOUS
 62
     7
 10
16.6440367089
 20
11.6869734761
 30
0.0
  0
VERTEX
  5
781
  8
0
  6
CONTINUOUS
 62
     7
 10
16.6040953312
 20
11.6386254339
 30
0.0
  0
VERTEX
  5
782
  8
0
  6
CONTINUOUS
 62
     7
 10
16.5752884472
 20
11.5877172451
 30
0.0
  0
VERTEX
  5
783
  8
0
  6
CONTINUOUS
 62
     7
 10
16.5525322696
 20
11.5200760255
 30
0.0
  0
VERTEX
  5
784
  8
0
  6
CONTINUOUS
 62
     7
 10
16.5472048873
 20
11.4695223847
 30
0.0
  0
SEQEND
  5
76F
  8
0
  6
CONTINUOUS
 62
     7
  0
POLYLINE
  5
3E3
  8
0
  6
CONTINUOUS
 62
     7
 66
     1
 10
0.0
 20
0.0
 30
0.0
  0
VERTEX
  5
786
  8
0
  6
CONTINUOUS
 62
     7
 10
16.7934383108
 20
11.7480960606
 30
0.0
  0
VERTEX
  5
787
  8
0
  6
CONTINUOUS
 62
     7
 10
16.8083210638
 20
11.7398415669
 30
0.0
  0
VERTEX
  5
788
  8
0
  6
CONTINUOUS
 62
     7
 10
16.8106470928
 20
11.7359491306
 30
0.0
  0
SEQEND
  5
785
  8
0
  6
CONTINUOUS
 62
     7
  0
POLYLINE
  5
3E4
  8
0
  6
CONTINUOUS
 62
     7
 66
     1
 10
0.0
 20
0.0
 30
0.0
  0
VERTEX
  5
78A
  8
0
  6
CONTINUOUS
 62
     7
 10
16.5994580837
 20
11.3624355826
 30
0.0
  0
VERTEX
  5
78B
  8
0
  6
CONTINUOUS
 62
     7
 10
16.5948112177
 20
11.3625220505
 30
0.0
  0
VERTEX
  5
78C
  8
0
  6
CONTINUOUS
 62
     7
 10
16.5784266915
 20
11.37160948
 30
0.0
  0
SEQEND
  5
789
  8
0
  6
CONTINUOUS
 62
     7
  0
LINE
  5
3E5
  8
0
  6
CONTINUOUS
 62
     7
 10
18.2750114541
 20
13.0428088225
 30
0.0
 11
18.2501085468
 21
13.0568302475
 31
0.0
  0
LINE
  5
3E6
  8
0
  6
CONTINUOUS
 62
     7
 10
17.0570857525
 20
12.3506804471
 30
0.0
 11
16.7800260196
 21
12.1866888821
 31
0.0
  0
LINE
  5
3E7
  8
0
  6
CONTINUOUS
 62
     7
 10
17.1238346053
 20
12.3901890712
 30
0.0
 11
17.0570857525
 21
12.3506804471
 31
0.0
  0
LINE
  5
3E8
  8
0
  6
CONTINUOUS
 62
     7
 10
17.5411905902
 20
12.6372219416
 30
0.0
 11
17.1238346053
 21
12.3901890712
 31
0.0
  0
LINE
  5
3E9
  8
0
  6
CONTINUOUS
 62
     7
 10
17.607939443
 20
12.6767305657
 30
0.0
 11
17.5411905902
 21
12.6372219416
 31
0.0
  0
LINE
  5
3EA
  8
0
  6
CONTINUOUS
 62
     7
 10
17.8849991759
 20
12.8407221307
 30
0.0
 11
17.607939443
 21
12.6767305657
 31
0.0
  0
LINE
  5
3EB
  8
0
  6
CONTINUOUS
 62
     7
 10
18.2501085468
 20
13.0568302475
 30
0.0
 11
17.8849991759
 21
12.8407221307
 31
0.0
  0
LINE
  5
3EC
  8
0
  6
CONTINUOUS
 62
     7
 10
16.7800260196
 20
12.1866888821
 30
0.0
 11
16.4149166487
 21
11.9705807652
 31
0.0
  0
LINE
  5
3ED
  8
0
  6
CONTINUOUS
 62
     7
 10
16.6229111904
 20
11.4126048784
 30
0.0
 11
16.6804459151
 21
11.4466596631
 31
0.0
  0
LINE
  5
3EE
  8
0
  6
CONTINUOUS
 62
     7
 10
16.6804459151
 20
11.4466596631
 30
0.0
 11
16.6581069897
 21
11.4542997352
 31
0.0
  0
LINE
  5
3EF
  8
0
  6
CONTINUOUS
 62
     7
 10
16.6581069897
 20
11.4542997352
 30
0.0
 11
16.76623052
 21
11.6751237284
 31
0.0
  0
LINE
  5
3F0
  8
0
  6
CONTINUOUS
 62
     7
 10
16.76623052
 20
11.6751237284
 30
0.0
 11
16.7409097776
 21
11.6837836032
 31
0.0
  0
LINE
  5
3F1
  8
0
  6
CONTINUOUS
 62
     7
 10
16.7409097776
 20
11.6837836032
 30
0.0
 11
16.6327862473
 21
11.46295961
 31
0.0
  0
LINE
  5
3F2
  8
0
  6
CONTINUOUS
 62
     7
 10
16.6327862473
 20
11.46295961
 30
0.0
 11
16.610447322
 21
11.4705996821
 31
0.0
  0
LINE
  5
3F3
  8
0
  6
CONTINUOUS
 62
     7
 10
16.610447322
 20
11.4705996821
 30
0.0
 11
16.6229111904
 21
11.4126048784
 31
0.0
  0
LINE
  5
3F4
  8
0
  6
CONTINUOUS
 62
     7
 10
16.7783165463
 20
12.1856770454
 30
0.0
 11
13.9743998927
 21
13.7644046574
 31
0.0
  0
LINE
  5
3F5
  8
0
  6
CONTINUOUS
 62
     7
 10
13.9743998927
 20
13.7644046574
 30
0.0
 11
13.6097930671
 21
13.5485939969
 31
0.0
  0
LINE
  5
3F6
  8
0
  6
CONTINUOUS
 62
     7
 10
13.0354702982
 20
12.4931453652
 30
0.0
 11
15.8402491638
 21
10.9139322903
 31
0.0
  0
LINE
  5
3F7
  8
0
  6
CONTINUOUS
 62
     7
 10
15.8206827911
 20
10.8791812175
 30
0.0
 11
13.0159039255
 21
12.4583942924
 31
0.0
  0
ARC
  5
3F8
  8
0
  6
CONTINUOUS
 62
     7
 10
13.0592217742
 20
12.4568883484
 30
0.0
 40
0.043344017803107
 50
123.2282599059
 51
178.0089154327
  0
LINE
  5
3F9
  8
0
  6
CONTINUOUS
 62
     7
 10
13.0159057283
 20
12.4582265919
 30
0.0
 11
15.8206845939
 21
10.879013517
 31
0.0
  0
LINE
  5
3FA
  8
0
  6
CONTINUOUS
 62
     7
 10
13.0159039255
 20
12.4583942924
 30
0.0
 11
13.0159057283
 21
12.4582265919
 31
0.0
  0
LINE
  5
3FB
  8
0
  6
CONTINUOUS
 62
     7
 10
13.0834014937
 20
12.5215158241
 30
0.0
 11
13.0354702982
 21
12.4931453652
 31
0.0
  0
ARC
  5
3FC
  8
0
  6
CONTINUOUS
 62
     7
 10
13.0300345
 20
12.4569888063
 30
0.0
 40
0.0141828876535222
 50
174.9932459629
 51
234.9237884181
  0
LINE
  5
3FD
  8
0
  6
CONTINUOUS
 62
     7
 10
13.011235869
 20
12.3857845065
 30
0.0
 11
15.8160147346
 21
10.8065714315
 31
0.0
  0
LINE
  5
3FE
  8
0
  6
CONTINUOUS
 62
     7
 10
15.7964483619
 20
10.7718203587
 30
0.0
 11
12.9916694963
 21
12.3510334337
 31
0.0
  0
ARC
  5
3FF
  8
0
  6
CONTINUOUS
 62
     7
 10
13.034987345
 20
12.3495274897
 30
0.0
 40
0.0433440178031134
 50
123.2282599059
 51
178.0089154327
  0
LINE
  5
400
  8
0
  6
CONTINUOUS
 62
     7
 10
16.4177738567
 20
11.434734827
 30
0.0
 11
16.4633406379
 21
11.4338869299
 31
0.0
  0
POLYLINE
  5
401
  8
0
  6
CONTINUOUS
 62
     7
 66
     1
 10
0.0
 20
0.0
 30
0.0
  0
VERTEX
  5
78E
  8
0
  6
CONTINUOUS
 62
     7
 10
16.6790854193
 20
11.8150027637
 30
0.0
  0
VERTEX
  5
78F
  8
0
  6
CONTINUOUS
 62
     7
 10
16.6762902725
 20
11.8238585761
 30
0.0
  0
VERTEX
  5
790
  8
0
  6
CONTINUOUS
 62
     7
 10
16.6552562589
 20
11.8532278145
 30
0.0
  0
SEQEND
  5
78D
  8
0
  6
CONTINUOUS
 62
     7
  0
LINE
  5
402
  8
0
  6
CONTINUOUS
 62
     7
 10
13.0680287828
 20
12.4194002135
 30
0.0
 11
13.011235869
 21
12.3857845065
 31
0.0
  0
LINE
  5
403
  8
0
  6
CONTINUOUS
 62
     7
 10
12.9916712991
 20
12.3508657332
 30
0.0
 11
15.7964501647
 21
10.7716526583
 31
0.0
  0
LINE
  5
404
  8
0
  6
CONTINUOUS
 62
     7
 10
12.9916694963
 20
12.3510334337
 30
0.0
 11
12.9916712991
 21
12.3508657332
 31
0.0
  0
ARC
  5
405
  8
0
  6
CONTINUOUS
 62
     7
 10
13.0058000708
 20
12.3496279476
 30
0.0
 40
0.0141828876535263
 50
174.9932459629
 51
234.9237884181
  0
ARC
  5
406
  8
0
  6
CONTINUOUS
 62
     7
 10
15.8057190389
 20
10.657145397
 30
0.0
 40
0.0433440178031168
 50
123.2282599059
 51
178.0089154327
  0
LINE
  5
407
  8
0
  6
CONTINUOUS
 62
     7
 10
16.147018718
 20
10.9094760727
 30
0.0
 11
15.7819675629
 21
10.6934024138
 31
0.0
  0
ARC
  5
408
  8
0
  6
CONTINUOUS
 62
     7
 10
16.1225996642
 20
10.9463012011
 30
0.0
 40
0.044185747412698
 50
303.548694201
 51
347.8720934159
  0
LINE
  5
409
  8
0
  6
CONTINUOUS
 62
     7
 10
16.165799231
 20
10.9370180063
 30
0.0
 11
16.166343402
 21
10.8863969093
 31
0.0
  0
POLYLINE
  5
40A
  8
0
  6
CONTINUOUS
 62
     7
 66
     1
 10
0.0
 20
0.0
 30
0.0
  0
VERTEX
  5
792
  8
0
  6
CONTINUOUS
 62
     7
 10
16.166343402
 20
10.8863969093
 30
0.0
  0
VERTEX
  5
793
  8
0
  6
CONTINUOUS
 62
     7
 10
16.1674513201
 20
10.8762941662
 30
0.0
  0
VERTEX
  5
794
  8
0
  6
CONTINUOUS
 62
     7
 10
16.1698587292
 20
10.8691046711
 30
0.0
  0
SEQEND
  5
791
  8
0
  6
CONTINUOUS
 62
     7
  0
ARC
  5
40B
  8
0
  6
CONTINUOUS
 62
     7
 10
16.1635722768
 20
10.8567528895
 30
0.0
 40
0.0138595090885169
 50
63.0261329215
 51
126.7609419485
  0
LINE
  5
40C
  8
0
  6
CONTINUOUS
 62
     7
 10
15.7824643603
 20
10.647188214
 30
0.0
 11
16.1552776709
 21
10.8678562902
 31
0.0
  0
ARC
  5
40D
  8
0
  6
CONTINUOUS
 62
     7
 10
15.7745771718
 20
10.6566429056
 30
0.0
 40
0.0123125519347271
 50
171.4020084688
 51
309.8351668698
  0
LINE
  5
40E
  8
0
  6
CONTINUOUS
 62
     7
 10
15.7624011902
 20
10.658651341
 30
0.0
 11
15.762402993
 21
10.6584836405
 31
0.0
  0
LINE
  5
40F
  8
0
  6
CONTINUOUS
 62
     7
 10
12.9771886974
 20
12.2726154887
 30
0.0
 11
15.7819675629
 21
10.6934024138
 31
0.0
  0
LINE
  5
410
  8
0
  6
CONTINUOUS
 62
     7
 10
15.7624011902
 20
10.658651341
 30
0.0
 11
12.9576223247
 21
12.2378644159
 31
0.0
  0
ARC
  5
411
  8
0
  6
CONTINUOUS
 62
     7
 10
13.0009401733
 20
12.2363584719
 30
0.0
 40
0.0433440178031166
 50
123.2282599059
 51
178.0089154327
  0
LINE
  5
412
  8
0
  6
CONTINUOUS
 62
     7
 10
16.643876757
 20
11.4623119781
 30
0.0
 11
16.7506810944
 21
11.6804417431
 31
0.0
  0
LINE
  5
413
  8
0
  6
CONTINUOUS
 62
     7
 10
16.6197776688
 20
11.4271852609
 30
0.0
 11
16.6628476787
 21
11.4526783857
 31
0.0
  0
LINE
  5
414
  8
0
  6
CONTINUOUS
 62
     7
 10
12.9576241274
 20
12.2376967155
 30
0.0
 11
15.762402993
 21
10.6584836405
 31
0.0
  0
LINE
  5
415
  8
0
  6
CONTINUOUS
 62
     7
 10
12.9576223247
 20
12.2378644159
 30
0.0
 11
12.9576241274
 21
12.2376967155
 31
0.0
  0
LINE
  5
416
  8
0
  6
CONTINUOUS
 62
     7
 10
13.0437943536
 20
12.3120393548
 30
0.0
 11
12.9771886974
 21
12.2726154887
 31
0.0
  0
ARC
  5
417
  8
0
  6
CONTINUOUS
 62
     7
 10
12.9717528991
 20
12.2364589298
 30
0.0
 40
0.0141828876535251
 50
174.9932459629
 51
234.9237884181
  0
LINE
  5
418
  8
0
  6
CONTINUOUS
 62
     7
 10
16.643876757
 20
11.4623119781
 30
0.0
 11
16.6581069897
 21
11.4542997352
 31
0.0
  0
LINE
  5
419
  8
0
  6
CONTINUOUS
 62
     7
 10
16.8088329036
 20
12.2375970708
 30
0.0
 11
14.004054038
 21
13.8168101457
 31
0.0
  0
LINE
  5
41A
  8
0
  6
CONTINUOUS
 62
     7
 10
16.8088329036
 20
12.2375970708
 30
0.0
 11
16.7800260196
 21
12.1866888821
 31
0.0
  0
LINE
  5
41B
  8
0
  6
CONTINUOUS
 62
     7
 10
13.975247154
 20
13.765901957
 30
0.0
 11
13.9743998927
 21
13.7644046574
 31
0.0
  0
LINE
  5
41C
  8
0
  6
CONTINUOUS
 62
     7
 10
14.004054038
 20
13.8168101457
 30
0.0
 11
13.975247154
 21
13.765901957
 31
0.0
  0
LINE
  5
41D
  8
0
  6
CONTINUOUS
 62
     7
 10
17.0570575975
 20
12.3532995458
 30
0.0
 11
17.0570857525
 21
12.3506804471
 31
0.0
  0
LINE
  5
41E
  8
0
  6
CONTINUOUS
 62
     7
 10
17.0827210121
 20
12.3997113523
 30
0.0
 11
16.8088329036
 21
12.2375970708
 31
0.0
  0
LINE
  5
41F
  8
0
  6
CONTINUOUS
 62
     7
 10
17.0827210121
 20
12.3997113523
 30
0.0
 11
17.0830545191
 21
12.3686871152
 31
0.0
  0
LINE
  5
420
  8
0
  6
CONTINUOUS
 62
     7
 10
17.0830545191
 20
12.3686871152
 30
0.0
 11
17.0570575975
 21
12.3532995458
 31
0.0
  0
POLYLINE
  5
421
  8
0
  6
CONTINUOUS
 62
     7
 66
     1
 10
0.0
 20
0.0
 30
0.0
  0
VERTEX
  5
796
  8
0
  6
CONTINUOUS
 62
     7
 10
16.2805687389
 20
10.9182575024
 30
0.0
  0
VERTEX
  5
797
  8
0
  6
CONTINUOUS
 62
     7
 10
16.2827131629
 20
10.9034943099
 30
0.0
  0
VERTEX
  5
798
  8
0
  6
CONTINUOUS
 62
     7
 10
16.2908015513
 20
10.8899589941
 30
0.0
  0
VERTEX
  5
799
  8
0
  6
CONTINUOUS
 62
     7
 10
16.3007897099
 20
10.8844192131
 30
0.0
  0
VERTEX
  5
79A
  8
0
  6
CONTINUOUS
 62
     7
 10
16.3144778246
 20
10.8841645076
 30
0.0
  0
VERTEX
  5
79B
  8
0
  6
CONTINUOUS
 62
     7
 10
16.330509532
 20
10.8905585972
 30
0.0
  0
VERTEX
  5
79C
  8
0
  6
CONTINUOUS
 62
     7
 10
16.3464751168
 20
10.9031036943
 30
0.0
  0
VERTEX
  5
79D
  8
0
  6
CONTINUOUS
 62
     7
 10
16.3599847004
 20
10.9194567086
 30
0.0
  0
VERTEX
  5
79E
  8
0
  6
CONTINUOUS
 62
     7
 10
16.3697282053
 20
10.9366756548
 30
0.0
  0
VERTEX
  5
79F
  8
0
  6
CONTINUOUS
 62
     7
 10
16.3774251477
 20
10.9595543026
 30
0.0
  0
VERTEX
  5
7A0
  8
0
  6
CONTINUOUS
 62
     7
 10
16.3792270565
 20
10.9766533282
 30
0.0
  0
VERTEX
  5
7A1
  8
0
  6
CONTINUOUS
 62
     7
 10
16.3770826325
 20
10.9914165207
 30
0.0
  0
VERTEX
  5
7A2
  8
0
  6
CONTINUOUS
 62
     7
 10
16.3689942441
 20
11.0049518364
 30
0.0
  0
VERTEX
  5
7A3
  8
0
  6
CONTINUOUS
 62
     7
 10
16.3590060855
 20
11.0104916174
 30
0.0
  0
VERTEX
  5
7A4
  8
0
  6
CONTINUOUS
 62
     7
 10
16.3453179708
 20
11.010746323
 30
0.0
  0
VERTEX
  5
7A5
  8
0
  6
CONTINUOUS
 62
     7
 10
16.3292862634
 20
11.0043522333
 30
0.0
  0
VERTEX
  5
7A6
  8
0
  6
CONTINUOUS
 62
     7
 10
16.3133206786
 20
10.9918071363
 30
0.0
  0
VERTEX
  5
7A7
  8
0
  6
CONTINUOUS
 62
     7
 10
16.299811095
 20
10.975454122
 30
0.0
  0
VERTEX
  5
7A8
  8
0
  6
CONTINUOUS
 62
     7
 10
16.2900675901
 20
10.9582351758
 30
0.0
  0
VERTEX
  5
7A9
  8
0
  6
CONTINUOUS
 62
     7
 10
16.2823706477
 20
10.935356528
 30
0.0
  0
VERTEX
  5
7AA
  8
0
  6
CONTINUOUS
 62
     7
 10
16.2805687389
 20
10.9182575024
 30
0.0
  0
SEQEND
  5
795
  8
0
  6
CONTINUOUS
 62
     7
  0
LINE
  5
422
  8
0
  6
CONTINUOUS
 62
     7
 10
14.2779421466
 20
13.9789244273
 30
0.0
 11
14.004054038
 21
13.8168101457
 31
0.0
  0
LINE
  5
423
  8
0
  6
CONTINUOUS
 62
     7
 10
17.0827210121
 20
12.3997113523
 30
0.0
 11
14.2779421466
 21
13.9789244273
 31
0.0
  0
LINE
  5
424
  8
0
  6
CONTINUOUS
 62
     7
 10
16.3208934288
 20
10.9819579125
 30
0.0
 11
16.3212125424
 21
10.9522726162
 31
0.0
  0
LINE
  5
425
  8
0
  6
CONTINUOUS
 62
     7
 10
16.3212125424
 20
10.9522726162
 30
0.0
 11
16.29547559
 21
10.9370389225
 31
0.0
  0
LINE
  5
426
  8
0
  6
CONTINUOUS
 62
     7
 10
16.29547559
 20
10.9370389225
 30
0.0
 11
16.2956883324
 21
10.9172487249
 31
0.0
  0
LINE
  5
427
  8
0
  6
CONTINUOUS
 62
     7
 10
16.2956883324
 20
10.9172487249
 30
0.0
 11
16.3214252848
 21
10.9324824186
 31
0.0
  0
LINE
  5
428
  8
0
  6
CONTINUOUS
 62
     7
 10
16.3214252848
 20
10.9324824186
 30
0.0
 11
16.3217443983
 21
10.9027971222
 31
0.0
  0
LINE
  5
429
  8
0
  6
CONTINUOUS
 62
     7
 10
16.3217443983
 20
10.9027971222
 30
0.0
 11
16.3389023666
 21
10.912952918
 31
0.0
  0
LINE
  5
42A
  8
0
  6
CONTINUOUS
 62
     7
 10
16.3389023666
 20
10.912952918
 30
0.0
 11
16.338583253
 21
10.9426382144
 31
0.0
  0
LINE
  5
42B
  8
0
  6
CONTINUOUS
 62
     7
 10
16.338583253
 20
10.9426382144
 30
0.0
 11
16.3643202054
 21
10.9578719081
 31
0.0
  0
LINE
  5
42C
  8
0
  6
CONTINUOUS
 62
     7
 10
16.3643202054
 20
10.9578719081
 30
0.0
 11
16.364107463
 21
10.9776621056
 31
0.0
  0
LINE
  5
42D
  8
0
  6
CONTINUOUS
 62
     7
 10
16.364107463
 20
10.9776621056
 30
0.0
 11
16.3383705106
 21
10.962428412
 31
0.0
  0
LINE
  5
42E
  8
0
  6
CONTINUOUS
 62
     7
 10
16.3383705106
 20
10.962428412
 30
0.0
 11
16.3380513971
 21
10.9921137083
 31
0.0
  0
LINE
  5
42F
  8
0
  6
CONTINUOUS
 62
     7
 10
16.3380513971
 20
10.9921137083
 30
0.0
 11
16.3208934288
 21
10.9819579125
 31
0.0
  0
LINE
  5
430
  8
0
  6
CONTINUOUS
 62
     7
 10
16.1899654489
 20
10.9915265381
 30
0.0
 11
16.1650625417
 21
11.0055479632
 31
0.0
  0
LINE
  5
431
  8
0
  6
CONTINUOUS
 62
     7
 10
16.1912463092
 20
10.8723754842
 30
0.0
 11
16.166343402
 21
10.8863969093
 31
0.0
  0
LINE
  5
432
  8
0
  6
CONTINUOUS
 62
     7
 10
16.1656533507
 20
10.9505884055
 30
0.0
 11
16.165799231
 21
10.9370180063
 31
0.0
  0
LINE
  5
433
  8
0
  6
CONTINUOUS
 62
     7
 10
16.3074583254
 20
10.9441314997
 30
0.0
 11
16.3214252848
 21
10.9324824186
 31
0.0
  0
LINE
  5
434
  8
0
  6
CONTINUOUS
 62
     7
 10
16.3210394318
 20
10.9683760995
 30
0.0
 11
16.3383705106
 21
10.962428412
 31
0.0
  0
LINE
  5
435
  8
0
  6
CONTINUOUS
 62
     7
 10
16.3212111151
 20
10.9524053918
 30
0.0
 11
16.338583253
 21
10.9426382144
 31
0.0
  0
LINE
  5
436
  8
0
  6
CONTINUOUS
 62
     7
 10
16.3470638432
 20
10.9675739926
 30
0.0
 11
16.3643202054
 21
10.9578719081
 31
0.0
  0
LINE
  5
437
  8
0
  6
CONTINUOUS
 62
     7
 10
16.3215302286
 20
10.9227200954
 30
0.0
 11
16.3389023666
 21
10.912952918
 31
0.0
  0
POLYLINE
  5
438
  8
0
  6
CONTINUOUS
 62
     7
 66
     1
 10
0.0
 20
0.0
 30
0.0
  0
VERTEX
  5
7AC
  8
0
  6
CONTINUOUS
 62
     7
 10
16.1698587292
 20
10.8691046711
 30
0.0
  0
VERTEX
  5
7AD
  8
0
  6
CONTINUOUS
 62
     7
 10
16.1778529916
 20
10.8593436658
 30
0.0
  0
VERTEX
  5
7AE
  8
0
  6
CONTINUOUS
 62
     7
 10
16.1796243467
 20
10.8587791099
 30
0.0
  0
SEQEND
  5
7AB
  8
0
  6
CONTINUOUS
 62
     7
  0
LINE
  5
439
  8
0
  6
CONTINUOUS
 62
     7
 10
17.0828702126
 20
12.3858320884
 30
0.0
 11
17.1000916871
 21
12.3761356456
 31
0.0
  0
LINE
  5
43A
  8
0
  6
CONTINUOUS
 62
     7
 10
17.1238346053
 20
12.3901890712
 30
0.0
 11
17.1234729433
 21
12.423832407
 31
0.0
  0
LINE
  5
43B
  8
0
  6
CONTINUOUS
 62
     7
 10
17.5408289281
 20
12.6708652775
 30
0.0
 11
17.1234729433
 21
12.423832407
 31
0.0
  0
LINE
  5
43C
  8
0
  6
CONTINUOUS
 62
     7
 10
17.5408289281
 20
12.6708652775
 30
0.0
 11
17.5411905902
 21
12.6372219416
 31
0.0
  0
LINE
  5
43D
  8
0
  6
CONTINUOUS
 62
     7
 10
14.3186940777
 20
14.003045482
 30
0.0
 11
17.1234729433
 21
12.423832407
 31
0.0
  0
LINE
  5
43E
  8
0
  6
CONTINUOUS
 62
     7
 10
14.7360500626
 20
14.2500783525
 30
0.0
 11
14.3186940777
 21
14.003045482
 31
0.0
  0
LINE
  5
43F
  8
0
  6
CONTINUOUS
 62
     7
 10
17.5408289281
 20
12.6708652775
 30
0.0
 11
14.7360500626
 21
14.2500783525
 31
0.0
  0
LINE
  5
440
  8
0
  6
CONTINUOUS
 62
     7
 10
14.3192031148
 20
13.955692699
 30
0.0
 11
14.3190557398
 21
13.9694021461
 31
0.0
  0
LINE
  5
441
  8
0
  6
CONTINUOUS
 62
     7
 10
14.3190557398
 20
13.9694021461
 30
0.0
 11
14.3186940777
 21
14.003045482
 31
0.0
  0
POLYLINE
  5
442
  8
0
  6
CONTINUOUS
 62
     7
 66
     1
 10
0.0
 20
0.0
 30
0.0
  0
VERTEX
  5
7B0
  8
0
  6
CONTINUOUS
 62
     7
 10
17.5008305334
 20
11.9476887486
 30
0.0
  0
VERTEX
  5
7B1
  8
0
  6
CONTINUOUS
 62
     7
 10
17.5053990888
 20
11.9162367297
 30
0.0
  0
VERTEX
  5
7B2
  8
0
  6
CONTINUOUS
 62
     7
 10
17.5226308727
 20
11.8874006224
 30
0.0
  0
VERTEX
  5
7B3
  8
0
  6
CONTINUOUS
 62
     7
 10
17.5439099933
 20
11.8755984802
 30
0.0
  0
VERTEX
  5
7B4
  8
0
  6
CONTINUOUS
 62
     7
 10
17.573071629
 20
11.8750558466
 30
0.0
  0
VERTEX
  5
7B5
  8
0
  6
CONTINUOUS
 62
     7
 10
17.6072261361
 20
11.8886780377
 30
0.0
  0
VERTEX
  5
7B6
  8
0
  6
CONTINUOUS
 62
     7
 10
17.6412397732
 20
11.9154045487
 30
0.0
  0
VERTEX
  5
7B7
  8
0
  6
CONTINUOUS
 62
     7
 10
17.67002106
 20
11.9502435792
 30
0.0
  0
VERTEX
  5
7B8
  8
0
  6
CONTINUOUS
 62
     7
 10
17.6907789617
 20
11.9869274211
 30
0.0
  0
VERTEX
  5
7B9
  8
0
  6
CONTINUOUS
 62
     7
 10
17.7071767956
 20
12.0356688882
 30
0.0
  0
VERTEX
  5
7BA
  8
0
  6
CONTINUOUS
 62
     7
 10
17.7110156446
 20
12.072097247
 30
0.0
  0
VERTEX
  5
7BB
  8
0
  6
CONTINUOUS
 62
     7
 10
17.7064470892
 20
12.1035492659
 30
0.0
  0
VERTEX
  5
7BC
  8
0
  6
CONTINUOUS
 62
     7
 10
17.6892153053
 20
12.1323853732
 30
0.0
  0
VERTEX
  5
7BD
  8
0
  6
CONTINUOUS
 62
     7
 10
17.6679361847
 20
12.1441875154
 30
0.0
  0
VERTEX
  5
7BE
  8
0
  6
CONTINUOUS
 62
     7
 10
17.638774549
 20
12.144730149
 30
0.0
  0
VERTEX
  5
7BF
  8
0
  6
CONTINUOUS
 62
     7
 10
17.6046200419
 20
12.131107958
 30
0.0
  0
VERTEX
  5
7C0
  8
0
  6
CONTINUOUS
 62
     7
 10
17.5706064048
 20
12.1043814469
 30
0.0
  0
VERTEX
  5
7C1
  8
0
  6
CONTINUOUS
 62
     7
 10
17.541825118
 20
12.0695424164
 30
0.0
  0
VERTEX
  5
7C2
  8
0
  6
CONTINUOUS
 62
     7
 10
17.5210672163
 20
12.0328585745
 30
0.0
  0
VERTEX
  5
7C3
  8
0
  6
CONTINUOUS
 62
     7
 10
17.5046693824
 20
11.9841171074
 30
0.0
  0
VERTEX
  5
7C4
  8
0
  6
CONTINUOUS
 62
     7
 10
17.5008305334
 20
11.9476887486
 30
0.0
  0
SEQEND
  5
7AF
  8
0
  6
CONTINUOUS
 62
     7
  0
LINE
  5
443
  8
0
  6
CONTINUOUS
 62
     7
 10
17.6742151788
 20
12.1960264548
 30
0.0
 11
17.678197102
 21
12.1938179413
 31
0.0
  0
LINE
  5
444
  8
0
  6
CONTINUOUS
 62
     7
 10
16.8525779349
 20
11.7258714339
 30
0.0
 11
16.8536491743
 21
11.6262202017
 31
0.0
  0
LINE
  5
445
  8
0
  6
CONTINUOUS
 62
     7
 10
17.0702819744
 20
11.746447268
 30
0.0
 11
17.0691253029
 21
11.85404575
 31
0.0
  0
LINE
  5
446
  8
0
  6
CONTINUOUS
 62
     7
 10
16.8357572112
 20
11.6076321376
 30
0.0
 11
16.8605740307
 21
11.622321205
 31
0.0
  0
LINE
  5
447
  8
0
  6
CONTINUOUS
 62
     7
 10
17.0379021012
 20
11.7272816317
 30
0.0
 11
17.0702819744
 21
11.746447268
 31
0.0
  0
LINE
  5
448
  8
0
  6
CONTINUOUS
 62
     7
 10
16.9304957622
 20
11.714218629
 30
0.0
 11
16.8804739666
 21
11.7423830859
 31
0.0
  0
LINE
  5
449
  8
0
  6
CONTINUOUS
 62
     7
 10
17.0373625492
 20
11.7774730451
 30
0.0
 11
16.9873407536
 21
11.8056375021
 31
0.0
  0
LINE
  5
44A
  8
0
  6
CONTINUOUS
 62
     7
 10
17.0373625492
 20
11.7774730451
 30
0.0
 11
16.9304957622
 21
11.714218629
 31
0.0
  0
LINE
  5
44B
  8
0
  6
CONTINUOUS
 62
     7
 10
17.0387822412
 20
11.645407282
 30
0.0
 11
17.0373625492
 21
11.7774730451
 31
0.0
  0
LINE
  5
44C
  8
0
  6
CONTINUOUS
 62
     7
 10
16.9319154542
 20
11.5821528658
 30
0.0
 11
17.0387822412
 21
11.645407282
 31
0.0
  0
LINE
  5
44D
  8
0
  6
CONTINUOUS
 62
     7
 10
16.9304957622
 20
11.714218629
 30
0.0
 11
16.9319154542
 21
11.5821528658
 31
0.0
  0
LINE
  5
44E
  8
0
  6
CONTINUOUS
 62
     7
 10
16.9319154542
 20
11.5821528658
 30
0.0
 11
16.8536491743
 21
11.6262202017
 31
0.0
  0
POLYLINE
  5
44F
  8
0
  6
CONTINUOUS
 62
     7
 66
     1
 10
0.0
 20
0.0
 30
0.0
  0
VERTEX
  5
7C6
  8
0
  6
CONTINUOUS
 62
     7
 10
17.2225930096
 20
12.0324291515
 30
0.0
  0
VERTEX
  5
7C7
  8
0
  6
CONTINUOUS
 62
     7
 10
17.2235458532
 20
12.0258693419
 30
0.0
  0
VERTEX
  5
7C8
  8
0
  6
CONTINUOUS
 62
     7
 10
17.2464043421
 20
11.9876173627
 30
0.0
  0
VERTEX
  5
7C9
  8
0
  6
CONTINUOUS
 62
     7
 10
17.2601414615
 20
11.9799982773
 30
0.0
  0
SEQEND
  5
7C5
  8
0
  6
CONTINUOUS
 62
     7
  0
POLYLINE
  5
450
  8
0
  6
CONTINUOUS
 62
     7
 66
     1
 10
0.0
 20
0.0
 30
0.0
  0
VERTEX
  5
7CB
  8
0
  6
CONTINUOUS
 62
     7
 10
17.4536465719
 20
12.3202162197
 30
0.0
  0
VERTEX
  5
7CC
  8
0
  6
CONTINUOUS
 62
     7
 10
17.4391562866
 20
12.3282530372
 30
0.0
  0
VERTEX
  5
7CD
  8
0
  6
CONTINUOUS
 62
     7
 10
17.4004724841
 20
12.3289728573
 30
0.0
  0
SEQEND
  5
7CA
  8
0
  6
CONTINUOUS
 62
     7
  0
POLYLINE
  5
451
  8
0
  6
CONTINUOUS
 62
     7
 66
     1
 10
0.0
 20
0.0
 30
0.0
  0
VERTEX
  5
7CF
  8
0
  6
CONTINUOUS
 62
     7
 10
17.5501596921
 20
11.9768866615
 30
0.0
  0
VERTEX
  5
7D0
  8
0
  6
CONTINUOUS
 62
     7
 10
17.5525838236
 20
11.9601978352
 30
0.0
  0
VERTEX
  5
7D1
  8
0
  6
CONTINUOUS
 62
     7
 10
17.5617272191
 20
11.9448970435
 30
0.0
  0
VERTEX
  5
7D2
  8
0
  6
CONTINUOUS
 62
     7
 10
17.5730181811
 20
11.9386346823
 30
0.0
  0
VERTEX
  5
7D3
  8
0
  6
CONTINUOUS
 62
     7
 10
17.5884917021
 20
11.9383467543
 30
0.0
  0
VERTEX
  5
7D4
  8
0
  6
CONTINUOUS
 62
     7
 10
17.6066145017
 20
11.9455748557
 30
0.0
  0
VERTEX
  5
7D5
  8
0
  6
CONTINUOUS
 62
     7
 10
17.6246625541
 20
11.9597562697
 30
0.0
  0
VERTEX
  5
7D6
  8
0
  6
CONTINUOUS
 62
     7
 10
17.6399342573
 20
11.9782422859
 30
0.0
  0
VERTEX
  5
7D7
  8
0
  6
CONTINUOUS
 62
     7
 10
17.6509486541
 20
11.9977071816
 30
0.0
  0
VERTEX
  5
7D8
  8
0
  6
CONTINUOUS
 62
     7
 10
17.6596495456
 20
12.0235700009
 30
0.0
  0
VERTEX
  5
7D9
  8
0
  6
CONTINUOUS
 62
     7
 10
17.6616864859
 20
12.0428993341
 30
0.0
  0
VERTEX
  5
7DA
  8
0
  6
CONTINUOUS
 62
     7
 10
17.6592623544
 20
12.0595881604
 30
0.0
  0
VERTEX
  5
7DB
  8
0
  6
CONTINUOUS
 62
     7
 10
17.6501189589
 20
12.0748889521
 30
0.0
  0
VERTEX
  5
7DC
  8
0
  6
CONTINUOUS
 62
     7
 10
17.6388279969
 20
12.0811513133
 30
0.0
  0
VERTEX
  5
7DD
  8
0
  6
CONTINUOUS
 62
     7
 10
17.6233544759
 20
12.0814392413
 30
0.0
  0
VERTEX
  5
7DE
  8
0
  6
CONTINUOUS
 62
     7
 10
17.6052316763
 20
12.0742111399
 30
0.0
  0
VERTEX
  5
7DF
  8
0
  6
CONTINUOUS
 62
     7
 10
17.5871836239
 20
12.0600297259
 30
0.0
  0
VERTEX
  5
7E0
  8
0
  6
CONTINUOUS
 62
     7
 10
17.5719119207
 20
12.0415437097
 30
0.0
  0
VERTEX
  5
7E1
  8
0
  6
CONTINUOUS
 62
     7
 10
17.5608975239
 20
12.022078814
 30
0.0
  0
VERTEX
  5
7E2
  8
0
  6
CONTINUOUS
 62
     7
 10
17.5521966325
 20
11.9962159947
 30
0.0
  0
VERTEX
  5
7E3
  8
0
  6
CONTINUOUS
 62
     7
 10
17.5501596921
 20
11.9768866615
 30
0.0
  0
SEQEND
  5
7CE
  8
0
  6
CONTINUOUS
 62
     7
  0
LINE
  5
452
  8
0
  6
CONTINUOUS
 62
     7
 10
17.0702819744
 20
11.746447268
 30
0.0
 11
17.1058575561
 21
11.7264166607
 31
0.0
  0
POLYLINE
  5
453
  8
0
  6
CONTINUOUS
 62
     7
 66
     1
 10
0.0
 20
0.0
 30
0.0
  0
VERTEX
  5
7E5
  8
0
  6
CONTINUOUS
 62
     7
 10
17.2559406065
 20
11.9308454511
 30
0.0
  0
VERTEX
  5
7E6
  8
0
  6
CONTINUOUS
 62
     7
 10
17.30325898
 20
11.9299649608
 30
0.0
  0
VERTEX
  5
7E7
  8
0
  6
CONTINUOUS
 62
     7
 10
17.3276671309
 20
11.939699913
 30
0.0
  0
SEQEND
  5
7E4
  8
0
  6
CONTINUOUS
 62
     7
  0
ARC
  5
454
  8
0
  6
CONTINUOUS
 62
     7
 10
17.4178597809
 20
12.2718364069
 30
0.0
 40
0.1082421651571672
 50
5.3700850667
 51
45.7256992128
  0
LINE
  5
455
  8
0
  6
CONTINUOUS
 62
     7
 10
17.8554689678
 20
12.8571006137
 30
0.0
 11
15.0506901023
 21
14.4363136887
 31
0.0
  0
LINE
  5
456
  8
0
  6
CONTINUOUS
 62
     7
 10
17.8554689678
 20
12.8571006137
 30
0.0
 11
17.5815808593
 21
12.6949863322
 31
0.0
  0
LINE
  5
457
  8
0
  6
CONTINUOUS
 62
     7
 10
14.7768019938
 20
14.2741994072
 30
0.0
 11
17.5815808593
 21
12.6949863322
 31
0.0
  0
LINE
  5
458
  8
0
  6
CONTINUOUS
 62
     7
 10
15.0506901023
 20
14.4363136887
 30
0.0
 11
14.7768019938
 21
14.2741994072
 31
0.0
  0
LINE
  5
459
  8
0
  6
CONTINUOUS
 62
     7
 10
17.5819143664
 20
12.6639620951
 30
0.0
 11
17.5815808593
 21
12.6949863322
 31
0.0
  0
LINE
  5
45A
  8
0
  6
CONTINUOUS
 62
     7
 10
17.8849991759
 20
12.8407221307
 30
0.0
 11
17.8554689678
 21
12.8571006137
 31
0.0
  0
LINE
  5
45B
  8
0
  6
CONTINUOUS
 62
     7
 10
17.607939443
 20
12.6767305657
 30
0.0
 11
17.607911288
 21
12.6793496644
 31
0.0
  0
LINE
  5
45C
  8
0
  6
CONTINUOUS
 62
     7
 10
17.607911288
 20
12.6793496644
 30
0.0
 11
17.5819143664
 21
12.6639620951
 31
0.0
  0
LINE
  5
45D
  8
0
  6
CONTINUOUS
 62
     7
 10
14.7771355008
 20
14.24317517
 30
0.0
 11
17.5819143664
 21
12.6639620951
 31
0.0
  0
LINE
  5
45E
  8
0
  6
CONTINUOUS
 62
     7
 10
14.7771355008
 20
14.24317517
 30
0.0
 11
14.7768019938
 21
14.2741994072
 31
0.0
  0
LINE
  5
45F
  8
0
  6
CONTINUOUS
 62
     7
 10
14.7894047629
 20
14.2200373245
 30
0.0
 11
14.8034571529
 21
14.2283549296
 31
0.0
  0
LINE
  5
460
  8
0
  6
CONTINUOUS
 62
     7
 10
17.5819143664
 20
12.6639620951
 30
0.0
 11
17.5841965247
 21
12.6626771402
 31
0.0
  0
POLYLINE
  5
461
  8
0
  6
CONTINUOUS
 62
     7
 66
     1
 10
0.0
 20
0.0
 30
0.0
  0
VERTEX
  5
7E9
  8
0
  6
CONTINUOUS
 62
     7
 10
18.0069905972
 20
12.2472847243
 30
0.0
  0
VERTEX
  5
7EA
  8
0
  6
CONTINUOUS
 62
     7
 10
18.0115591526
 20
12.2158327054
 30
0.0
  0
VERTEX
  5
7EB
  8
0
  6
CONTINUOUS
 62
     7
 10
18.0287909366
 20
12.1869965981
 30
0.0
  0
VERTEX
  5
7EC
  8
0
  6
CONTINUOUS
 62
     7
 10
18.0500700571
 20
12.1751944559
 30
0.0
  0
VERTEX
  5
7ED
  8
0
  6
CONTINUOUS
 62
     7
 10
18.0792316928
 20
12.1746518223
 30
0.0
  0
VERTEX
  5
7EE
  8
0
  6
CONTINUOUS
 62
     7
 10
18.1133861999
 20
12.1882740133
 30
0.0
  0
VERTEX
  5
7EF
  8
0
  6
CONTINUOUS
 62
     7
 10
18.147399837
 20
12.2150005244
 30
0.0
  0
VERTEX
  5
7F0
  8
0
  6
CONTINUOUS
 62
     7
 10
18.1761811239
 20
12.2498395549
 30
0.0
  0
VERTEX
  5
7F1
  8
0
  6
CONTINUOUS
 62
     7
 10
18.1969390256
 20
12.2865233968
 30
0.0
  0
VERTEX
  5
7F2
  8
0
  6
CONTINUOUS
 62
     7
 10
18.2133368594
 20
12.3352648639
 30
0.0
  0
VERTEX
  5
7F3
  8
0
  6
CONTINUOUS
 62
     7
 10
18.2171757085
 20
12.3716932227
 30
0.0
  0
VERTEX
  5
7F4
  8
0
  6
CONTINUOUS
 62
     7
 10
18.2126071531
 20
12.4031452416
 30
0.0
  0
VERTEX
  5
7F5
  8
0
  6
CONTINUOUS
 62
     7
 10
18.1953753691
 20
12.4319813489
 30
0.0
  0
VERTEX
  5
7F6
  8
0
  6
CONTINUOUS
 62
     7
 10
18.1740962486
 20
12.4437834911
 30
0.0
  0
VERTEX
  5
7F7
  8
0
  6
CONTINUOUS
 62
     7
 10
18.1449346129
 20
12.4443261247
 30
0.0
  0
VERTEX
  5
7F8
  8
0
  6
CONTINUOUS
 62
     7
 10
18.1107801058
 20
12.4307039336
 30
0.0
  0
VERTEX
  5
7F9
  8
0
  6
CONTINUOUS
 62
     7
 10
18.0767664687
 20
12.4039774226
 30
0.0
  0
VERTEX
  5
7FA
  8
0
  6
CONTINUOUS
 62
     7
 10
18.0479851818
 20
12.3691383921
 30
0.0
  0
VERTEX
  5
7FB
  8
0
  6
CONTINUOUS
 62
     7
 10
18.0272272801
 20
12.3324545502
 30
0.0
  0
VERTEX
  5
7FC
  8
0
  6
CONTINUOUS
 62
     7
 10
18.0108294463
 20
12.2837130831
 30
0.0
  0
VERTEX
  5
7FD
  8
0
  6
CONTINUOUS
 62
     7
 10
18.0069905972
 20
12.2472847243
 30
0.0
  0
SEQEND
  5
7E8
  8
0
  6
CONTINUOUS
 62
     7
  0
LINE
  5
462
  8
0
  6
CONTINUOUS
 62
     7
 10
18.1803752427
 20
12.4956224305
 30
0.0
 11
18.1843571659
 21
12.493413917
 31
0.0
  0
POLYLINE
  5
463
  8
0
  6
CONTINUOUS
 62
     7
 66
     1
 10
0.0
 20
0.0
 30
0.0
  0
VERTEX
  5
7FF
  8
0
  6
CONTINUOUS
 62
     7
 10
17.7287530734
 20
12.3320251272
 30
0.0
  0
VERTEX
  5
800
  8
0
  6
CONTINUOUS
 62
     7
 10
17.729705917
 20
12.3254653176
 30
0.0
  0
VERTEX
  5
801
  8
0
  6
CONTINUOUS
 62
     7
 10
17.7525644059
 20
12.2872133384
 30
0.0
  0
VERTEX
  5
802
  8
0
  6
CONTINUOUS
 62
     7
 10
17.7663015254
 20
12.279594253
 30
0.0
  0
SEQEND
  5
7FE
  8
0
  6
CONTINUOUS
 62
     7
  0
POLYLINE
  5
464
  8
0
  6
CONTINUOUS
 62
     7
 66
     1
 10
0.0
 20
0.0
 30
0.0
  0
VERTEX
  5
804
  8
0
  6
CONTINUOUS
 62
     7
 10
17.9598066358
 20
12.6198121954
 30
0.0
  0
VERTEX
  5
805
  8
0
  6
CONTINUOUS
 62
     7
 10
17.9453163504
 20
12.6278490129
 30
0.0
  0
VERTEX
  5
806
  8
0
  6
CONTINUOUS
 62
     7
 10
17.9066325479
 20
12.628568833
 30
0.0
  0
SEQEND
  5
803
  8
0
  6
CONTINUOUS
 62
     7
  0
POLYLINE
  5
465
  8
0
  6
CONTINUOUS
 62
     7
 66
     1
 10
0.0
 20
0.0
 30
0.0
  0
VERTEX
  5
808
  8
0
  6
CONTINUOUS
 62
     7
 10
18.056319756
 20
12.2764826372
 30
0.0
  0
VERTEX
  5
809
  8
0
  6
CONTINUOUS
 62
     7
 10
18.0587438874
 20
12.2597938109
 30
0.0
  0
VERTEX
  5
80A
  8
0
  6
CONTINUOUS
 62
     7
 10
18.067887283
 20
12.2444930192
 30
0.0
  0
VERTEX
  5
80B
  8
0
  6
CONTINUOUS
 62
     7
 10
18.0791782449
 20
12.238230658
 30
0.0
  0
VERTEX
  5
80C
  8
0
  6
CONTINUOUS
 62
     7
 10
18.0946517659
 20
12.23794273
 30
0.0
  0
VERTEX
  5
80D
  8
0
  6
CONTINUOUS
 62
     7
 10
18.1127745656
 20
12.2451708314
 30
0.0
  0
VERTEX
  5
80E
  8
0
  6
CONTINUOUS
 62
     7
 10
18.1308226179
 20
12.2593522454
 30
0.0
  0
VERTEX
  5
80F
  8
0
  6
CONTINUOUS
 62
     7
 10
18.1460943212
 20
12.2778382616
 30
0.0
  0
VERTEX
  5
810
  8
0
  6
CONTINUOUS
 62
     7
 10
18.157108718
 20
12.2973031573
 30
0.0
  0
VERTEX
  5
811
  8
0
  6
CONTINUOUS
 62
     7
 10
18.1658096094
 20
12.3231659766
 30
0.0
  0
VERTEX
  5
812
  8
0
  6
CONTINUOUS
 62
     7
 10
18.1678465497
 20
12.3424953098
 30
0.0
  0
VERTEX
  5
813
  8
0
  6
CONTINUOUS
 62
     7
 10
18.1654224183
 20
12.3591841361
 30
0.0
  0
VERTEX
  5
814
  8
0
  6
CONTINUOUS
 62
     7
 10
18.1562790227
 20
12.3744849278
 30
0.0
  0
VERTEX
  5
815
  8
0
  6
CONTINUOUS
 62
     7
 10
18.1449880608
 20
12.380747289
 30
0.0
  0
VERTEX
  5
816
  8
0
  6
CONTINUOUS
 62
     7
 10
18.1295145398
 20
12.381035217
 30
0.0
  0
VERTEX
  5
817
  8
0
  6
CONTINUOUS
 62
     7
 10
18.1113917401
 20
12.3738071156
 30
0.0
  0
VERTEX
  5
818
  8
0
  6
CONTINUOUS
 62
     7
 10
18.0933436878
 20
12.3596257016
 30
0.0
  0
VERTEX
  5
819
  8
0
  6
CONTINUOUS
 62
     7
 10
18.0780719846
 20
12.3411396854
 30
0.0
  0
VERTEX
  5
81A
  8
0
  6
CONTINUOUS
 62
     7
 10
18.0670575877
 20
12.3216747897
 30
0.0
  0
VERTEX
  5
81B
  8
0
  6
CONTINUOUS
 62
     7
 10
18.0583566963
 20
12.2958119704
 30
0.0
  0
VERTEX
  5
81C
  8
0
  6
CONTINUOUS
 62
     7
 10
18.056319756
 20
12.2764826372
 30
0.0
  0
SEQEND
  5
807
  8
0
  6
CONTINUOUS
 62
     7
  0
LINE
  5
466
  8
0
  6
CONTINUOUS
 62
     7
 10
17.8850054995
 20
12.8407258736
 30
0.0
 11
15.0810888459
 21
14.4194534856
 31
0.0
  0
LINE
  5
467
  8
0
  6
CONTINUOUS
 62
     7
 10
15.0802203104
 20
14.4199352057
 30
0.0
 11
15.0506901023
 21
14.4363136887
 31
0.0
  0
LINE
  5
468
  8
0
  6
CONTINUOUS
 62
     7
 10
15.0810888459
 20
14.4194534856
 30
0.0
 11
15.0802203104
 21
14.4199352057
 31
0.0
  0
POLYLINE
  5
469
  8
0
  6
CONTINUOUS
 62
     7
 66
     1
 10
0.0
 20
0.0
 30
0.0
  0
VERTEX
  5
81E
  8
0
  6
CONTINUOUS
 62
     7
 10
17.7621006703
 20
12.2304414268
 30
0.0
  0
VERTEX
  5
81F
  8
0
  6
CONTINUOUS
 62
     7
 10
17.8094190438
 20
12.2295609365
 30
0.0
  0
VERTEX
  5
820
  8
0
  6
CONTINUOUS
 62
     7
 10
17.8338271947
 20
12.2392958887
 30
0.0
  0
SEQEND
  5
81D
  8
0
  6
CONTINUOUS
 62
     7
  0
ARC
  5
46A
  8
0
  6
CONTINUOUS
 62
     7
 10
17.9240198447
 20
12.5714323826
 30
0.0
 40
0.1082421651570452
 50
5.3700850666
 51
45.7256992128
  0
LINE
  5
46B
  8
0
  6
CONTINUOUS
 62
     7
 10
18.2496123252
 20
13.0565365341
 30
0.0
 11
15.4456956716
 21
14.635264146
 31
0.0
  0
LINE
  5
46C
  8
0
  6
CONTINUOUS
 62
     7
 10
15.4456956716
 20
14.635264146
 30
0.0
 11
15.0810888459
 21
14.4194534856
 31
0.0
  0
LINE
  5
46D
  8
0
  6
CONTINUOUS
 62
     7
 10
18.29195668
 20
13.0727548158
 30
0.0
 11
18.2670537727
 21
13.0867762409
 31
0.0
  0
LINE
  5
46E
  8
0
  6
CONTINUOUS
 62
     7
 10
18.2670537727
 20
13.0867762409
 30
0.0
 11
18.2501085468
 21
13.0568302475
 31
0.0
  0
LINE
  5
46F
  8
0
  6
CONTINUOUS
 62
     7
 10
18.4896286682
 20
13.1897568008
 30
0.0
 11
18.4647257609
 21
13.2037782259
 31
0.0
  0
LINE
  5
470
  8
0
  6
CONTINUOUS
 62
     7
 10
18.4647257609
 20
13.2037782259
 30
0.0
 11
18.2670537727
 21
13.0867762409
 31
0.0
  0
LINE
  5
471
  8
0
  6
CONTINUOUS
 62
     7
 10
18.2668078318
 20
13.0863416084
 30
0.0
 11
15.4626408974
 21
14.6652101394
 31
0.0
  0
LINE
  5
472
  8
0
  6
CONTINUOUS
 62
     7
 10
15.4626408974
 20
14.6652101394
 30
0.0
 11
15.4456956716
 21
14.635264146
 31
0.0
  0
LINE
  5
473
  8
0
  6
CONTINUOUS
 62
     7
 10
15.6599575325
 20
14.7820017909
 30
0.0
 11
15.4626408974
 21
14.6652101394
 31
0.0
  0
POLYLINE
  5
474
  8
0
  6
CONTINUOUS
 62
     7
 66
     1
 10
0.0
 20
0.0
 30
0.0
  0
VERTEX
  5
822
  8
0
  6
CONTINUOUS
 62
     7
 10
18.4596999977
 20
13.0047293682
 30
0.0
  0
VERTEX
  5
823
  8
0
  6
CONTINUOUS
 62
     7
 10
18.4618444217
 20
12.9899661756
 30
0.0
  0
VERTEX
  5
824
  8
0
  6
CONTINUOUS
 62
     7
 10
18.4699328101
 20
12.9764308599
 30
0.0
  0
VERTEX
  5
825
  8
0
  6
CONTINUOUS
 62
     7
 10
18.4799209687
 20
12.9708910789
 30
0.0
  0
VERTEX
  5
826
  8
0
  6
CONTINUOUS
 62
     7
 10
18.4936090834
 20
12.9706363733
 30
0.0
  0
VERTEX
  5
827
  8
0
  6
CONTINUOUS
 62
     7
 10
18.5096407908
 20
12.977030463
 30
0.0
  0
VERTEX
  5
828
  8
0
  6
CONTINUOUS
 62
     7
 10
18.5256063756
 20
12.9895755601
 30
0.0
  0
VERTEX
  5
829
  8
0
  6
CONTINUOUS
 62
     7
 10
18.5391159592
 20
13.0059285744
 30
0.0
  0
VERTEX
  5
82A
  8
0
  6
CONTINUOUS
 62
     7
 10
18.5488594641
 20
13.0231475205
 30
0.0
  0
VERTEX
  5
82B
  8
0
  6
CONTINUOUS
 62
     7
 10
18.5565564065
 20
13.0460261684
 30
0.0
  0
VERTEX
  5
82C
  8
0
  6
CONTINUOUS
 62
     7
 10
18.5583583153
 20
13.0631251939
 30
0.0
  0
VERTEX
  5
82D
  8
0
  6
CONTINUOUS
 62
     7
 10
18.5562138913
 20
13.0778883865
 30
0.0
  0
VERTEX
  5
82E
  8
0
  6
CONTINUOUS
 62
     7
 10
18.5481255029
 20
13.0914237022
 30
0.0
  0
VERTEX
  5
82F
  8
0
  6
CONTINUOUS
 62
     7
 10
18.5381373443
 20
13.0969634832
 30
0.0
  0
VERTEX
  5
830
  8
0
  6
CONTINUOUS
 62
     7
 10
18.5244492296
 20
13.0972181888
 30
0.0
  0
VERTEX
  5
831
  8
0
  6
CONTINUOUS
 62
     7
 10
18.5084175222
 20
13.0908240991
 30
0.0
  0
VERTEX
  5
832
  8
0
  6
CONTINUOUS
 62
     7
 10
18.4924519374
 20
13.078279002
 30
0.0
  0
VERTEX
  5
833
  8
0
  6
CONTINUOUS
 62
     7
 10
18.4789423538
 20
13.0619259877
 30
0.0
  0
VERTEX
  5
834
  8
0
  6
CONTINUOUS
 62
     7
 10
18.4691988489
 20
13.0447070416
 30
0.0
  0
VERTEX
  5
835
  8
0
  6
CONTINUOUS
 62
     7
 10
18.4615019065
 20
13.0218283937
 30
0.0
  0
VERTEX
  5
836
  8
0
  6
CONTINUOUS
 62
     7
 10
18.4596999977
 20
13.0047293682
 30
0.0
  0
SEQEND
  5
821
  8
0
  6
CONTINUOUS
 62
     7
  0
ARC
  5
475
  8
0
  6
CONTINUOUS
 62
     7
 10
18.4435498449
 20
13.0023440087
 30
0.0
 40
0.0457299216338176
 50
170.9637977548
 51
240.966338795
  0
LINE
  5
476
  8
0
  6
CONTINUOUS
 62
     7
 10
18.5180336254
 20
12.9994247838
 30
0.0
 11
18.5177145118
 21
13.0291100802
 31
0.0
  0
LINE
  5
477
  8
0
  6
CONTINUOUS
 62
     7
 10
18.5177145118
 20
13.0291100802
 30
0.0
 11
18.5434514642
 21
13.0443437738
 31
0.0
  0
LINE
  5
478
  8
0
  6
CONTINUOUS
 62
     7
 10
18.5434514642
 20
13.0443437738
 30
0.0
 11
18.5432387218
 21
13.0641339714
 31
0.0
  0
LINE
  5
479
  8
0
  6
CONTINUOUS
 62
     7
 10
18.5432387218
 20
13.0641339714
 30
0.0
 11
18.5175017694
 21
13.0489002777
 31
0.0
  0
LINE
  5
47A
  8
0
  6
CONTINUOUS
 62
     7
 10
18.5175017694
 20
13.0489002777
 30
0.0
 11
18.5171826559
 21
13.0785855741
 31
0.0
  0
LINE
  5
47B
  8
0
  6
CONTINUOUS
 62
     7
 10
18.5171826559
 20
13.0785855741
 30
0.0
 11
18.5000246876
 21
13.0684297783
 31
0.0
  0
LINE
  5
47C
  8
0
  6
CONTINUOUS
 62
     7
 10
18.5000246876
 20
13.0684297783
 30
0.0
 11
18.5003438012
 21
13.0387444819
 31
0.0
  0
LINE
  5
47D
  8
0
  6
CONTINUOUS
 62
     7
 10
18.5003438012
 20
13.0387444819
 30
0.0
 11
18.4746068488
 21
13.0235107883
 31
0.0
  0
LINE
  5
47E
  8
0
  6
CONTINUOUS
 62
     7
 10
18.4746068488
 20
13.0235107883
 30
0.0
 11
18.4748195912
 21
13.0037205907
 31
0.0
  0
LINE
  5
47F
  8
0
  6
CONTINUOUS
 62
     7
 10
18.4748195912
 20
13.0037205907
 30
0.0
 11
18.5005565436
 21
13.0189542844
 31
0.0
  0
LINE
  5
480
  8
0
  6
CONTINUOUS
 62
     7
 10
18.5005565436
 20
13.0189542844
 30
0.0
 11
18.5008756571
 21
12.989268988
 31
0.0
  0
LINE
  5
481
  8
0
  6
CONTINUOUS
 62
     7
 10
18.5008756571
 20
12.989268988
 30
0.0
 11
18.5180336254
 21
12.9994247838
 31
0.0
  0
LINE
  5
482
  8
0
  6
CONTINUOUS
 62
     7
 10
18.4865895842
 20
13.0306033655
 30
0.0
 11
18.5005565436
 21
13.0189542844
 31
0.0
  0
LINE
  5
483
  8
0
  6
CONTINUOUS
 62
     7
 10
18.5001706906
 20
13.0548479653
 30
0.0
 11
18.5175017694
 21
13.0489002777
 31
0.0
  0
POLYLINE
  5
484
  8
0
  6
CONTINUOUS
 62
     7
 66
     1
 10
0.0
 20
0.0
 30
0.0
  0
VERTEX
  5
838
  8
0
  6
CONTINUOUS
 62
     7
 10
18.4953135061
 20
13.2063045477
 30
0.0
  0
VERTEX
  5
839
  8
0
  6
CONTINUOUS
 62
     7
 10
18.4925659254
 20
13.2087660726
 30
0.0
  0
VERTEX
  5
83A
  8
0
  6
CONTINUOUS
 62
     7
 10
18.4789137352
 20
13.2094433375
 30
0.0
  0
VERTEX
  5
83B
  8
0
  6
CONTINUOUS
 62
     7
 10
18.4647257609
 20
13.2037782259
 30
0.0
  0
SEQEND
  5
837
  8
0
  6
CONTINUOUS
 62
     7
  0
LINE
  5
485
  8
0
  6
CONTINUOUS
 62
     7
 10
18.5003423739
 20
13.0388772576
 30
0.0
 11
18.5177145118
 21
13.0291100802
 31
0.0
  0
LINE
  5
486
  8
0
  6
CONTINUOUS
 62
     7
 10
18.526195102
 20
13.0540458584
 30
0.0
 11
18.5434514642
 21
13.0443437738
 31
0.0
  0
LINE
  5
487
  8
0
  6
CONTINUOUS
 62
     7
 10
18.5006614874
 20
13.0091919612
 30
0.0
 11
18.5180336254
 21
12.9994247838
 31
0.0
  0
POLYLINE
  5
488
  8
0
  6
CONTINUOUS
 62
     7
 66
     1
 10
0.0
 20
0.0
 30
0.0
  0
VERTEX
  5
83D
  8
0
  6
CONTINUOUS
 62
     7
 10
18.2737832103
 20
12.5376566834
 30
0.0
  0
VERTEX
  5
83E
  8
0
  6
CONTINUOUS
 62
     7
 10
18.2724498782
 20
12.5468359497
 30
0.0
  0
VERTEX
  5
83F
  8
0
  6
CONTINUOUS
 62
     7
 10
18.2615067758
 20
12.5651484167
 30
0.0
  0
SEQEND
  5
83C
  8
0
  6
CONTINUOUS
 62
     7
  0
ARC
  5
489
  8
0
  6
CONTINUOUS
 62
     7
 10
15.6770770116
 20
14.7605078508
 30
0.0
 40
0.0274784647819347
 50
61.5150983006
 51
128.5365972034
  0
POLYLINE
  5
48A
  8
0
  6
CONTINUOUS
 62
     7
 66
     1
 10
0.0
 20
0.0
 30
0.0
  0
VERTEX
  5
841
  8
0
  6
CONTINUOUS
 62
     7
 10
18.219362283
 20
12.3163035376
 30
0.0
  0
VERTEX
  5
842
  8
0
  6
CONTINUOUS
 62
     7
 10
18.2201973715
 20
12.3162879984
 30
0.0
  0
VERTEX
  5
843
  8
0
  6
CONTINUOUS
 62
     7
 10
18.2466845402
 20
12.3268521466
 30
0.0
  0
VERTEX
  5
844
  8
0
  6
CONTINUOUS
 62
     7
 10
18.2730624629
 20
12.3475788287
 30
0.0
  0
VERTEX
  5
845
  8
0
  6
CONTINUOUS
 62
     7
 10
18.2953826445
 20
12.3745968523
 30
0.0
  0
VERTEX
  5
846
  8
0
  6
CONTINUOUS
 62
     7
 10
18.3114806091
 20
12.403045546
 30
0.0
  0
VERTEX
  5
847
  8
0
  6
CONTINUOUS
 62
     7
 10
18.3241972966
 20
12.4408450511
 30
0.0
  0
VERTEX
  5
848
  8
0
  6
CONTINUOUS
 62
     7
 10
18.3271743632
 20
12.4690956151
 30
0.0
  0
VERTEX
  5
849
  8
0
  6
CONTINUOUS
 62
     7
 10
18.3236314018
 20
12.4934869767
 30
0.0
  0
VERTEX
  5
84A
  8
0
  6
CONTINUOUS
 62
     7
 10
18.3102679776
 20
12.5158496722
 30
0.0
  0
VERTEX
  5
84B
  8
0
  6
CONTINUOUS
 62
     7
 10
18.2937658024
 20
12.5250023539
 30
0.0
  0
VERTEX
  5
84C
  8
0
  6
CONTINUOUS
 62
     7
 10
18.2711506564
 20
12.5254231718
 30
0.0
  0
VERTEX
  5
84D
  8
0
  6
CONTINUOUS
 62
     7
 10
18.2446634876
 20
12.5148590236
 30
0.0
  0
VERTEX
  5
84E
  8
0
  6
CONTINUOUS
 62
     7
 10
18.218285565
 20
12.4941323415
 30
0.0
  0
VERTEX
  5
84F
  8
0
  6
CONTINUOUS
 62
     7
 10
18.2047250895
 20
12.4777177239
 30
0.0
  0
SEQEND
  5
840
  8
0
  6
CONTINUOUS
 62
     7
  0
POLYLINE
  5
48B
  8
0
  6
CONTINUOUS
 62
     7
 66
     1
 10
0.0
 20
0.0
 30
0.0
  0
VERTEX
  5
851
  8
0
  6
CONTINUOUS
 62
     7
 10
18.227864554
 20
12.3493163767
 30
0.0
  0
VERTEX
  5
852
  8
0
  6
CONTINUOUS
 62
     7
 10
18.228242627
 20
12.3493093416
 30
0.0
  0
VERTEX
  5
853
  8
0
  6
CONTINUOUS
 62
     7
 10
18.2463654266
 20
12.356537443
 30
0.0
  0
VERTEX
  5
854
  8
0
  6
CONTINUOUS
 62
     7
 10
18.264413479
 20
12.370718857
 30
0.0
  0
VERTEX
  5
855
  8
0
  6
CONTINUOUS
 62
     7
 10
18.2796851822
 20
12.3892048732
 30
0.0
  0
VERTEX
  5
856
  8
0
  6
CONTINUOUS
 62
     7
 10
18.290699579
 20
12.4086697689
 30
0.0
  0
VERTEX
  5
857
  8
0
  6
CONTINUOUS
 62
     7
 10
18.2994004705
 20
12.4345325882
 30
0.0
  0
VERTEX
  5
858
  8
0
  6
CONTINUOUS
 62
     7
 10
18.3014374108
 20
12.4538619214
 30
0.0
  0
VERTEX
  5
859
  8
0
  6
CONTINUOUS
 62
     7
 10
18.2990132793
 20
12.4705507478
 30
0.0
  0
VERTEX
  5
85A
  8
0
  6
CONTINUOUS
 62
     7
 10
18.2898698838
 20
12.4858515394
 30
0.0
  0
VERTEX
  5
85B
  8
0
  6
CONTINUOUS
 62
     7
 10
18.2785789219
 20
12.4921139006
 30
0.0
  0
VERTEX
  5
85C
  8
0
  6
CONTINUOUS
 62
     7
 10
18.2631054009
 20
12.4924018286
 30
0.0
  0
VERTEX
  5
85D
  8
0
  6
CONTINUOUS
 62
     7
 10
18.2449826012
 20
12.4851737272
 30
0.0
  0
VERTEX
  5
85E
  8
0
  6
CONTINUOUS
 62
     7
 10
18.2269345488
 20
12.4709923132
 30
0.0
  0
VERTEX
  5
85F
  8
0
  6
CONTINUOUS
 62
     7
 10
18.2172520337
 20
12.4592718699
 30
0.0
  0
SEQEND
  5
850
  8
0
  6
CONTINUOUS
 62
     7
  0
LINE
  5
48C
  8
0
  6
CONTINUOUS
 62
     7
 10
18.9086742569
 20
13.4154645373
 30
0.0
 11
18.5248201
 21
13.1882613878
 31
0.0
  0
ARC
  5
48D
  8
0
  6
CONTINUOUS
 62
     7
 10
18.9165614454
 20
13.4060098457
 30
0.0
 40
0.0123125519347298
 50
351.4020084688
 51
129.8351668698
  0
LINE
  5
48E
  8
0
  6
CONTINUOUS
 62
     7
 10
18.928737427
 20
13.4040014103
 30
0.0
 11
18.9287356242
 21
13.4041691108
 31
0.0
  0
ARC
  5
48F
  8
0
  6
CONTINUOUS
 62
     7
 10
18.8854195783
 20
13.4055073543
 30
0.0
 40
0.0433440178031203
 50
303.2282599059
 51
358.0089154327
  0
LINE
  5
490
  8
0
  6
CONTINUOUS
 62
     7
 10
18.5341167607
 20
13.1472558242
 30
0.0
 11
18.9091710543
 21
13.3692503375
 31
0.0
  0
LINE
  5
491
  8
0
  6
CONTINUOUS
 62
     7
 10
18.9086742569
 20
13.4154645373
 30
0.0
 11
16.1038953914
 21
14.9946776123
 31
0.0
  0
LINE
  5
492
  8
0
  6
CONTINUOUS
 62
     7
 10
16.1038953914
 20
14.9946776123
 30
0.0
 11
15.7211890396
 21
14.7681538483
 31
0.0
  0
LINE
  5
493
  8
0
  6
CONTINUOUS
 62
     7
 10
18.8706668248
 20
13.2999514427
 30
0.0
 11
18.5608541795
 21
13.1165734396
 31
0.0
  0
ARC
  5
494
  8
0
  6
CONTINUOUS
 62
     7
 10
18.8785540133
 20
13.2904967511
 30
0.0
 40
0.0123125519347269
 50
351.4020084688
 51
129.8351668698
  0
LINE
  5
495
  8
0
  6
CONTINUOUS
 62
     7
 10
18.8907299949
 20
13.2884883157
 30
0.0
 11
18.8907281921
 21
13.2886560162
 31
0.0
  0
ARC
  5
496
  8
0
  6
CONTINUOUS
 62
     7
 10
18.8474121463
 20
13.2899942597
 30
0.0
 40
0.0433440178031129
 50
303.2282599059
 51
358.0089154327
  0
LINE
  5
497
  8
0
  6
CONTINUOUS
 62
     7
 10
18.5685524488
 20
13.0746217887
 30
0.0
 11
18.8711636222
 21
13.2537372429
 31
0.0
  0
ARC
  5
498
  8
0
  6
CONTINUOUS
 62
     7
 10
18.5248082953
 20
12.5224087978
 30
0.0
 40
0.0167896251185942
 50
266.3750825598
 51
303.4299523985
  0
LINE
  5
499
  8
0
  6
CONTINUOUS
 62
     7
 10
18.8400832853
 20
12.6895331224
 30
0.0
 11
18.5340579869
 21
12.5083968487
 31
0.0
  0
ARC
  5
49A
  8
0
  6
CONTINUOUS
 62
     7
 10
18.8479704738
 20
12.6800784308
 30
0.0
 40
0.0123125519347282
 50
351.4020084688
 51
129.8351668698
  0
LINE
  5
49B
  8
0
  6
CONTINUOUS
 62
     7
 10
18.8601464554
 20
12.6780699954
 30
0.0
 11
18.8601446526
 21
12.6782376959
 31
0.0
  0
ARC
  5
49C
  8
0
  6
CONTINUOUS
 62
     7
 10
18.8168286068
 20
12.6795759394
 30
0.0
 40
0.0433440178030912
 50
303.2282599059
 51
358.0089154327
  0
LINE
  5
49D
  8
0
  6
CONTINUOUS
 62
     7
 10
18.5345547843
 20
12.4621826489
 30
0.0
 11
18.8405800827
 21
12.6433189226
 31
0.0
  0
ARC
  5
49E
  8
0
  6
CONTINUOUS
 62
     7
 10
18.5542907654
 20
12.4304543703
 30
0.0
 40
0.0373656609223053
 50
121.8829035638
 51
143.3424814941
  0
ARC
  5
49F
  8
0
  6
CONTINUOUS
 62
     7
 10
18.5258018901
 20
12.4299803982
 30
0.0
 40
0.0167896251185999
 50
266.3750825598
 51
303.4299523985
  0
LINE
  5
4A0
  8
0
  6
CONTINUOUS
 62
     7
 10
18.8663049041
 20
12.612037182
 30
0.0
 11
18.5350515817
 21
12.4159684491
 31
0.0
  0
ARC
  5
4A1
  8
0
  6
CONTINUOUS
 62
     7
 10
18.8741920926
 20
12.6025824904
 30
0.0
 40
0.0123125519347295
 50
351.4020084688
 51
129.8351668698
  0
LINE
  5
4A2
  8
0
  6
CONTINUOUS
 62
     7
 10
18.8863680742
 20
12.600574055
 30
0.0
 11
18.8863662715
 21
12.6007417555
 31
0.0
  0
ARC
  5
4A3
  8
0
  6
CONTINUOUS
 62
     7
 10
18.8430502256
 20
12.602079999
 30
0.0
 40
0.0433440178031095
 50
303.2282599059
 51
358.0089154327
  0
LINE
  5
4A4
  8
0
  6
CONTINUOUS
 62
     7
 10
18.5424310212
 20
12.3738280829
 30
0.0
 11
18.8668017016
 21
12.5658229822
 31
0.0
  0
LINE
  5
4A5
  8
0
  6
CONTINUOUS
 62
     7
 10
18.8126802683
 20
12.9523628097
 30
0.0
 11
18.5208018763
 21
12.7796000852
 31
0.0
  0
ARC
  5
4A6
  8
0
  6
CONTINUOUS
 62
     7
 10
18.8205674568
 20
12.9429081181
 30
0.0
 40
0.0123125519347241
 50
351.4020084688
 51
129.8351668698
  0
LINE
  5
4A7
  8
0
  6
CONTINUOUS
 62
     7
 10
18.8329909357
 20
12.917876433
 30
0.0
 11
18.8327416356
 21
12.9410673832
 31
0.0
  0
LINE
  5
4A8
  8
0
  6
CONTINUOUS
 62
     7
 10
18.5315739999
 20
12.7394678476
 30
0.0
 11
18.8329909357
 21
12.917876433
 31
0.0
  0
ARC
  5
4A9
  8
0
  6
CONTINUOUS
 62
     7
 10
18.551309981
 20
12.707739569
 30
0.0
 40
0.0373656609223759
 50
121.8829035638
 51
143.3424814941
  0
ARC
  5
4AA
  8
0
  6
CONTINUOUS
 62
     7
 10
18.5228211057
 20
12.707265597
 30
0.0
 40
0.0167896251185723
 50
266.3750825598
 51
303.4299523986
  0
LINE
  5
4AB
  8
0
  6
CONTINUOUS
 62
     7
 10
18.8136738631
 20
12.8599344101
 30
0.0
 11
18.5320707973
 21
12.6932536478
 31
0.0
  0
ARC
  5
4AC
  8
0
  6
CONTINUOUS
 62
     7
 10
18.8215610516
 20
12.8504797185
 30
0.0
 40
0.0123125519347282
 50
351.4020084688
 51
129.8351668698
  0
LINE
  5
4AD
  8
0
  6
CONTINUOUS
 62
     7
 10
18.8337370332
 20
12.8484712831
 30
0.0
 11
18.8337352304
 21
12.8486389836
 31
0.0
  0
ARC
  5
4AE
  8
0
  6
CONTINUOUS
 62
     7
 10
18.7904191845
 20
12.8499772271
 30
0.0
 40
0.043344017803113
 50
303.2282599059
 51
358.0089154327
  0
LINE
  5
4AF
  8
0
  6
CONTINUOUS
 62
     7
 10
18.5325675947
 20
12.6470394481
 30
0.0
 11
18.8141706605
 21
12.8137202103
 31
0.0
  0
ARC
  5
4B0
  8
0
  6
CONTINUOUS
 62
     7
 10
18.5523035758
 20
12.6153111694
 30
0.0
 40
0.0373656609223621
 50
121.8829035638
 51
143.3424814941
  0
ARC
  5
4B1
  8
0
  6
CONTINUOUS
 62
     7
 10
18.5238147005
 20
12.6148371974
 30
0.0
 40
0.0167896251186028
 50
266.3750825598
 51
303.4299523985
  0
LINE
  5
4B2
  8
0
  6
CONTINUOUS
 62
     7
 10
18.8227233849
 20
12.7722743111
 30
0.0
 11
18.5330643921
 21
12.6008252483
 31
0.0
  0
ARC
  5
4B3
  8
0
  6
CONTINUOUS
 62
     7
 10
18.8306105734
 20
12.7628196195
 30
0.0
 40
0.0123125519347241
 50
351.4020084688
 51
129.8351668698
  0
LINE
  5
4B4
  8
0
  6
CONTINUOUS
 62
     7
 10
18.842786555
 20
12.7608111841
 30
0.0
 11
18.8427847522
 21
12.7609788845
 31
0.0
  0
ARC
  5
4B5
  8
0
  6
CONTINUOUS
 62
     7
 10
18.7994687063
 20
12.7623171281
 30
0.0
 40
0.0433440178031021
 50
303.2282599059
 51
358.0089154327
  0
LINE
  5
4B6
  8
0
  6
CONTINUOUS
 62
     7
 10
18.5335611895
 20
12.5546110485
 30
0.0
 11
18.8232201823
 21
12.7260601113
 31
0.0
  0
ARC
  5
4B7
  8
0
  6
CONTINUOUS
 62
     7
 10
18.5532971706
 20
12.5228827698
 30
0.0
 40
0.0373656609223856
 50
121.8829035638
 51
143.3424814941
  0
ARC
  5
4B8
  8
0
  6
CONTINUOUS
 62
     7
 10
13.4469532271
 20
13.3626752034
 30
0.0
 40
0.095128846979622
 50
123.0339461512
 51
177.9585231515
  0
LINE
  5
4B9
  8
0
  6
CONTINUOUS
 62
     7
 10
13.5927670725
 20
13.559428242
 30
0.0
 11
13.3950950843
 21
13.442426257
 31
0.0
  0
LINE
  5
4BA
  8
0
  6
CONTINUOUS
 62
     7
 10
13.6101377831
 20
13.5497938402
 30
0.0
 11
13.5927670725
 21
13.559428242
 31
0.0
  0
LINE
  5
4BB
  8
0
  6
CONTINUOUS
 62
     7
 10
13.975247154
 20
13.765901957
 30
0.0
 11
13.6101377831
 21
13.5497938402
 31
0.0
  0
LINE
  5
4BC
  8
0
  6
CONTINUOUS
 62
     7
 10
13.3518847583
 20
13.366063974
 30
0.0
 11
13.3518879687
 21
13.3657653219
 31
0.0
  0
ARC
  5
4BD
  8
0
  6
CONTINUOUS
 62
     7
 10
13.4220503198
 20
13.3766966285
 30
0.0
 40
0.0951288469796239
 50
123.0339461512
 51
177.9585231515
  0
LINE
  5
4BE
  8
0
  6
CONTINUOUS
 62
     7
 10
13.370192177
 20
13.4564476821
 30
0.0
 11
13.3950950843
 21
13.442426257
 31
0.0
  0
ARC
  5
4BF
  8
0
  6
CONTINUOUS
 62
     7
 10
16.1122806578
 20
14.9832390106
 30
0.0
 40
0.0141828876535179
 50
66.3133869205
 51
126.2439293757
  0
POLYLINE
  5
4C0
  8
0
  6
CONTINUOUS
 62
     7
 66
     1
 10
0.0
 20
0.0
 30
0.0
  0
VERTEX
  5
861
  8
0
  6
CONTINUOUS
 62
     7
 10
18.4682096929
 20
12.2131214651
 30
0.0
  0
VERTEX
  5
862
  8
0
  6
CONTINUOUS
 62
     7
 10
18.4703541168
 20
12.1983582726
 30
0.0
  0
VERTEX
  5
863
  8
0
  6
CONTINUOUS
 62
     7
 10
18.4784425052
 20
12.1848229569
 30
0.0
  0
VERTEX
  5
864
  8
0
  6
CONTINUOUS
 62
     7
 10
18.4884306638
 20
12.1792831759
 30
0.0
  0
VERTEX
  5
865
  8
0
  6
CONTINUOUS
 62
     7
 10
18.5021187786
 20
12.1790284703
 30
0.0
  0
VERTEX
  5
866
  8
0
  6
CONTINUOUS
 62
     7
 10
18.518150486
 20
12.18542256
 30
0.0
  0
VERTEX
  5
867
  8
0
  6
CONTINUOUS
 62
     7
 10
18.5341160707
 20
12.197967657
 30
0.0
  0
VERTEX
  5
868
  8
0
  6
CONTINUOUS
 62
     7
 10
18.5476256543
 20
12.2143206713
 30
0.0
  0
VERTEX
  5
869
  8
0
  6
CONTINUOUS
 62
     7
 10
18.5573691592
 20
12.2315396175
 30
0.0
  0
VERTEX
  5
86A
  8
0
  6
CONTINUOUS
 62
     7
 10
18.5650661016
 20
12.2544182653
 30
0.0
  0
VERTEX
  5
86B
  8
0
  6
CONTINUOUS
 62
     7
 10
18.5668680104
 20
12.2715172909
 30
0.0
  0
VERTEX
  5
86C
  8
0
  6
CONTINUOUS
 62
     7
 10
18.5647235864
 20
12.2862804834
 30
0.0
  0
VERTEX
  5
86D
  8
0
  6
CONTINUOUS
 62
     7
 10
18.556635198
 20
12.2998157992
 30
0.0
  0
VERTEX
  5
86E
  8
0
  6
CONTINUOUS
 62
     7
 10
18.5466470394
 20
12.3053555802
 30
0.0
  0
VERTEX
  5
86F
  8
0
  6
CONTINUOUS
 62
     7
 10
18.5329589247
 20
12.3056102857
 30
0.0
  0
VERTEX
  5
870
  8
0
  6
CONTINUOUS
 62
     7
 10
18.5169272173
 20
12.2992161961
 30
0.0
  0
VERTEX
  5
871
  8
0
  6
CONTINUOUS
 62
     7
 10
18.5009616325
 20
12.286671099
 30
0.0
  0
VERTEX
  5
872
  8
0
  6
CONTINUOUS
 62
     7
 10
18.4874520489
 20
12.2703180847
 30
0.0
  0
VERTEX
  5
873
  8
0
  6
CONTINUOUS
 62
     7
 10
18.477708544
 20
12.2530991385
 30
0.0
  0
VERTEX
  5
874
  8
0
  6
CONTINUOUS
 62
     7
 10
18.4700116016
 20
12.2302204907
 30
0.0
  0
VERTEX
  5
875
  8
0
  6
CONTINUOUS
 62
     7
 10
18.4682096929
 20
12.2131214651
 30
0.0
  0
SEQEND
  5
860
  8
0
  6
CONTINUOUS
 62
     7
  0
LINE
  5
4C1
  8
0
  6
CONTINUOUS
 62
     7
 10
13.326981851
 20
13.380085399
 30
0.0
 11
13.327292289
 21
13.3512071471
 31
0.0
  0
LINE
  5
4C2
  8
0
  6
CONTINUOUS
 62
     7
 10
13.5678641653
 20
13.5734496671
 30
0.0
 11
13.5927670725
 21
13.559428242
 31
0.0
  0
LINE
  5
4C3
  8
0
  6
CONTINUOUS
 62
     7
 10
13.5678641653
 20
13.5734496671
 30
0.0
 11
13.370192177
 21
13.4564476821
 31
0.0
  0
ARC
  5
4C4
  8
0
  6
CONTINUOUS
 62
     7
 10
18.45205954
 20
12.2107361057
 30
0.0
 40
0.0457299216338268
 50
170.9637977548
 51
240.9663387949
  0
LINE
  5
4C5
  8
0
  6
CONTINUOUS
 62
     7
 10
18.525692351
 20
12.2869776711
 30
0.0
 11
18.5085343827
 21
12.2768218753
 31
0.0
  0
LINE
  5
4C6
  8
0
  6
CONTINUOUS
 62
     7
 10
18.5085343827
 20
12.2768218753
 30
0.0
 11
18.5088534963
 21
12.2471365789
 31
0.0
  0
LINE
  5
4C7
  8
0
  6
CONTINUOUS
 62
     7
 10
18.5088534963
 20
12.2471365789
 30
0.0
 11
18.4831165439
 21
12.2319028852
 31
0.0
  0
LINE
  5
4C8
  8
0
  6
CONTINUOUS
 62
     7
 10
18.4831165439
 20
12.2319028852
 30
0.0
 11
18.4833292863
 21
12.2121126877
 31
0.0
  0
LINE
  5
4C9
  8
0
  6
CONTINUOUS
 62
     7
 10
18.4833292863
 20
12.2121126877
 30
0.0
 11
18.5090662387
 21
12.2273463813
 31
0.0
  0
LINE
  5
4CA
  8
0
  6
CONTINUOUS
 62
     7
 10
18.5090662387
 20
12.2273463813
 30
0.0
 11
18.5093853522
 21
12.197661085
 31
0.0
  0
LINE
  5
4CB
  8
0
  6
CONTINUOUS
 62
     7
 10
18.5093853522
 20
12.197661085
 30
0.0
 11
18.5265433205
 21
12.2078168808
 31
0.0
  0
LINE
  5
4CC
  8
0
  6
CONTINUOUS
 62
     7
 10
18.5265433205
 20
12.2078168808
 30
0.0
 11
18.5262242069
 21
12.2375021771
 31
0.0
  0
LINE
  5
4CD
  8
0
  6
CONTINUOUS
 62
     7
 10
18.5262242069
 20
12.2375021771
 30
0.0
 11
18.5519611593
 21
12.2527358708
 31
0.0
  0
LINE
  5
4CE
  8
0
  6
CONTINUOUS
 62
     7
 10
18.5519611593
 20
12.2527358708
 30
0.0
 11
18.551748417
 21
12.2725260684
 31
0.0
  0
LINE
  5
4CF
  8
0
  6
CONTINUOUS
 62
     7
 10
18.551748417
 20
12.2725260684
 30
0.0
 11
18.5260114646
 21
12.2572923747
 31
0.0
  0
LINE
  5
4D0
  8
0
  6
CONTINUOUS
 62
     7
 10
18.5260114646
 20
12.2572923747
 30
0.0
 11
18.525692351
 21
12.2869776711
 31
0.0
  0
LINE
  5
4D1
  8
0
  6
CONTINUOUS
 62
     7
 10
18.4950992794
 20
12.2389954624
 30
0.0
 11
18.5090662387
 21
12.2273463813
 31
0.0
  0
LINE
  5
4D2
  8
0
  6
CONTINUOUS
 62
     7
 10
18.5086803857
 20
12.2632400622
 30
0.0
 11
18.5260114646
 21
12.2572923747
 31
0.0
  0
LINE
  5
4D3
  8
0
  6
CONTINUOUS
 62
     7
 10
18.508852069
 20
12.2472693546
 30
0.0
 11
18.5262242069
 21
12.2375021771
 31
0.0
  0
LINE
  5
4D4
  8
0
  6
CONTINUOUS
 62
     7
 10
18.5347047971
 20
12.2624379554
 30
0.0
 11
18.5519611593
 21
12.2527358708
 31
0.0
  0
LINE
  5
4D5
  8
0
  6
CONTINUOUS
 62
     7
 10
18.5091711825
 20
12.2175840582
 30
0.0
 11
18.5265433205
 21
12.2078168808
 31
0.0
  0
LINE
  5
4D6
  8
0
  6
CONTINUOUS
 62
     7
 10
18.5423228982
 20
12.3838861404
 30
0.0
 11
18.5249506078
 21
12.3936674991
 31
0.0
  0
LINE
  5
4D7
  8
0
  6
CONTINUOUS
 62
     7
 10
13.5852348759
 20
13.5638152653
 30
0.0
 11
13.6101377831
 21
13.5497938402
 31
0.0
  0
LINE
  5
4D8
  8
0
  6
CONTINUOUS
 62
     7
 10
13.5852348759
 20
13.5638152653
 30
0.0
 11
13.5678641653
 21
13.5734496671
 31
0.0
  0
LINE
  5
4D9
  8
0
  6
CONTINUOUS
 62
     7
 10
14.7794176592
 20
14.2418902151
 30
0.0
 11
14.7653652691
 21
14.2335726101
 31
0.0
  0
LINE
  5
4DA
  8
0
  6
CONTINUOUS
 62
     7
 10
14.3190557398
 20
13.9694021461
 30
0.0
 11
14.3072573531
 21
13.9624186849
 31
0.0
  0
LINE
  5
4DB
  8
0
  6
CONTINUOUS
 62
     7
 10
15.420426774
 20
14.6500647476
 30
0.0
 11
15.4453296813
 21
14.6360433225
 31
0.0
  0
LINE
  5
4DC
  8
0
  6
CONTINUOUS
 62
     7
 10
15.4453296813
 20
14.6360433225
 30
0.0
 11
15.0802203104
 21
14.4199352057
 31
0.0
  0
LINE
  5
4DD
  8
0
  6
CONTINUOUS
 62
     7
 10
15.420426774
 20
14.6500647476
 30
0.0
 11
15.055134762
 21
14.4338485255
 31
0.0
  0
LINE
  5
4DE
  8
0
  6
CONTINUOUS
 62
     7
 10
14.7768564284
 20
14.2691356711
 30
0.0
 11
14.7404623619
 21
14.2475940351
 31
0.0
  0
LINE
  5
4DF
  8
0
  6
CONTINUOUS
 62
     7
 10
14.3187485123
 20
13.997981746
 30
0.0
 11
14.2823544459
 21
13.97644011
 31
0.0
  0
LINE
  5
4E0
  8
0
  6
CONTINUOUS
 62
     7
 10
13.9997182475
 20
13.8091478369
 30
0.0
 11
13.5852348759
 21
13.5638152653
 31
0.0
  0
LINE
  5
4E1
  8
0
  6
CONTINUOUS
 62
     7
 10
18.9023392654
 20
12.5403494005
 30
0.0
 11
18.5600246833
 21
12.3377335117
 31
0.0
  0
ARC
  5
4E2
  8
0
  6
CONTINUOUS
 62
     7
 10
18.9102264539
 20
12.530894709
 30
0.0
 40
0.0123125519347271
 50
351.4020084688
 51
129.8351668698
  0
LINE
  5
4E3
  8
0
  6
CONTINUOUS
 62
     7
 10
18.9224024355
 20
12.5288862735
 30
0.0
 11
18.9224006327
 21
12.529053974
 31
0.0
  0
ARC
  5
4E4
  8
0
  6
CONTINUOUS
 62
     7
 10
18.8790845868
 20
12.5303922176
 30
0.0
 40
0.0433440178030986
 50
303.2282599059
 51
358.0089154327
  0
LINE
  5
4E5
  8
0
  6
CONTINUOUS
 62
     7
 10
18.5772080323
 20
12.3013960764
 30
0.0
 11
18.9028360628
 21
12.4941352008
 31
0.0
  0
LINE
  5
4E6
  8
0
  6
CONTINUOUS
 62
     7
 10
14.1425563223
 20
13.9286301585
 30
0.0
 11
14.4865260384
 21
14.1322257206
 31
0.0
  0
LINE
  5
4E7
  8
0
  6
CONTINUOUS
 62
     7
 10
14.4865260384
 20
14.1322257206
 30
0.0
 11
14.5123632845
 21
14.1176782219
 31
0.0
  0
LINE
  5
4E8
  8
0
  6
CONTINUOUS
 62
     7
 10
15.4622749072
 20
14.6659893159
 30
0.0
 11
15.4453296813
 21
14.6360433225
 31
0.0
  0
LINE
  5
4E9
  8
0
  6
CONTINUOUS
 62
     7
 10
15.6599468954
 20
14.7829913008
 30
0.0
 11
15.4622749072
 21
14.6659893159
 31
0.0
  0
POLYLINE
  5
4EA
  8
0
  6
CONTINUOUS
 62
     7
 66
     1
 10
0.0
 20
0.0
 30
0.0
  0
VERTEX
  5
877
  8
0
  6
CONTINUOUS
 62
     7
 10
15.6905346405
 20
14.7855176227
 30
0.0
  0
VERTEX
  5
878
  8
0
  6
CONTINUOUS
 62
     7
 10
15.6877870598
 20
14.7879791475
 30
0.0
  0
VERTEX
  5
879
  8
0
  6
CONTINUOUS
 62
     7
 10
15.6741348696
 20
14.7886564124
 30
0.0
  0
VERTEX
  5
87A
  8
0
  6
CONTINUOUS
 62
     7
 10
15.6599468954
 20
14.7829913008
 30
0.0
  0
SEQEND
  5
876
  8
0
  6
CONTINUOUS
 62
     7
  0
LINE
  5
4EB
  8
0
  6
CONTINUOUS
 62
     7
 10
15.4373719999
 20
14.6800107409
 30
0.0
 11
15.4622749072
 21
14.6659893159
 31
0.0
  0
LINE
  5
4EC
  8
0
  6
CONTINUOUS
 62
     7
 10
15.4373719999
 20
14.6800107409
 30
0.0
 11
15.420426774
 21
14.6500647476
 31
0.0
  0
LINE
  5
4ED
  8
0
  6
CONTINUOUS
 62
     7
 10
15.6350439882
 20
14.7970127259
 30
0.0
 11
15.6599468954
 21
14.7829913008
 31
0.0
  0
LINE
  5
4EE
  8
0
  6
CONTINUOUS
 62
     7
 10
15.6350439882
 20
14.7970127259
 30
0.0
 11
15.4373719999
 21
14.6800107409
 31
0.0
  0
POLYLINE
  5
4EF
  8
0
  6
CONTINUOUS
 62
     7
 66
     1
 10
0.0
 20
0.0
 30
0.0
  0
VERTEX
  5
87C
  8
0
  6
CONTINUOUS
 62
     7
 10
15.6656317333
 20
14.7995390477
 30
0.0
  0
VERTEX
  5
87D
  8
0
  6
CONTINUOUS
 62
     7
 10
15.6628841526
 20
14.8020005726
 30
0.0
  0
VERTEX
  5
87E
  8
0
  6
CONTINUOUS
 62
     7
 10
15.6492319624
 20
14.8026778375
 30
0.0
  0
VERTEX
  5
87F
  8
0
  6
CONTINUOUS
 62
     7
 10
15.6350439882
 20
14.7970127259
 30
0.0
  0
SEQEND
  5
87B
  8
0
  6
CONTINUOUS
 62
     7
  0
LINE
  5
4F0
  8
0
  6
CONTINUOUS
 62
     7
 10
17.235725709
 20
11.4040270284
 30
0.0
 11
17.2047377269
 21
11.4214746165
 31
0.0
  0
LINE
  5
4F1
  8
0
  6
CONTINUOUS
 62
     7
 10
17.1546118442
 20
11.2534236994
 30
0.0
 11
17.0347952136
 21
11.3208856986
 31
0.0
  0
LINE
  5
4F2
  8
0
  6
CONTINUOUS
 62
     7
 10
17.2422398944
 20
11.4218602332
 30
0.0
 11
17.2233542031
 21
11.4324937027
 31
0.0
  0
LINE
  5
4F3
  8
0
  6
CONTINUOUS
 62
     7
 10
17.5088597313
 20
11.4354417142
 30
0.0
 11
17.4864873568
 21
11.4480383387
 31
0.0
  0
LINE
  5
4F4
  8
0
  6
CONTINUOUS
 62
     7
 10
17.4598385429
 20
11.5366793412
 30
0.0
 11
17.4552174462
 21
11.5392812206
 31
0.0
  0
LINE
  5
4F5
  8
0
  6
CONTINUOUS
 62
     7
 10
15.7567268043
 20
11.5033378887
 30
0.0
 11
15.7970114826
 21
11.4806558543
 31
0.0
  0
LINE
  5
4F6
  8
0
  6
CONTINUOUS
 62
     7
 10
16.1387044575
 20
11.682903814
 30
0.0
 11
16.0984355967
 21
11.7055769425
 31
0.0
  0
POLYLINE
  5
4F7
  8
0
  6
CONTINUOUS
 62
     7
 66
     1
 10
0.0
 20
0.0
 30
0.0
  0
VERTEX
  5
881
  8
0
  6
CONTINUOUS
 62
     7
 10
16.2249767424
 20
11.7066500761
 30
0.0
  0
VERTEX
  5
882
  8
0
  6
CONTINUOUS
 62
     7
 10
16.2277187774
 20
11.7326703324
 30
0.0
  0
VERTEX
  5
883
  8
0
  6
CONTINUOUS
 62
     7
 10
16.2394315159
 20
11.767485666
 30
0.0
  0
VERTEX
  5
884
  8
0
  6
CONTINUOUS
 62
     7
 10
16.2542585885
 20
11.7936884102
 30
0.0
  0
VERTEX
  5
885
  8
0
  6
CONTINUOUS
 62
     7
 10
16.2748166506
 20
11.818573432
 30
0.0
  0
VERTEX
  5
886
  8
0
  6
CONTINUOUS
 62
     7
 10
16.2991121056
 20
11.837663797
 30
0.0
  0
VERTEX
  5
887
  8
0
  6
CONTINUOUS
 62
     7
 10
16.3235081821
 20
11.8473939335
 30
0.0
  0
VERTEX
  5
888
  8
0
  6
CONTINUOUS
 62
     7
 10
16.3443379219
 20
11.8470063381
 30
0.0
  0
VERTEX
  5
889
  8
0
  6
CONTINUOUS
 62
     7
 10
16.3540598145
 20
11.8416142375
 30
0.0
  0
SEQEND
  5
880
  8
0
  6
CONTINUOUS
 62
     7
  0
ARC
  5
4F8
  8
0
  6
CONTINUOUS
 62
     7
 10
16.2703198642
 20
11.6995519832
 30
0.0
 40
0.0458953333089583
 50
171.1030223702
 51
241.754816783
  0
POLYLINE
  5
4F9
  8
0
  6
CONTINUOUS
 62
     7
 66
     1
 10
0.0
 20
0.0
 30
0.0
  0
VERTEX
  5
88B
  8
0
  6
CONTINUOUS
 62
     7
 10
16.3379101506
 20
11.8506910639
 30
0.0
  0
VERTEX
  5
88C
  8
0
  6
CONTINUOUS
 62
     7
 10
16.3301076892
 20
11.855018581
 30
0.0
  0
VERTEX
  5
88D
  8
0
  6
CONTINUOUS
 62
     7
 10
16.3092779494
 20
11.8554061764
 30
0.0
  0
VERTEX
  5
88E
  8
0
  6
CONTINUOUS
 62
     7
 10
16.2848818729
 20
11.8456760399
 30
0.0
  0
VERTEX
  5
88F
  8
0
  6
CONTINUOUS
 62
     7
 10
16.2605864178
 20
11.8265856749
 30
0.0
  0
VERTEX
  5
890
  8
0
  6
CONTINUOUS
 62
     7
 10
16.2400283558
 20
11.8017006531
 30
0.0
  0
VERTEX
  5
891
  8
0
  6
CONTINUOUS
 62
     7
 10
16.2252012832
 20
11.7754979089
 30
0.0
  0
VERTEX
  5
892
  8
0
  6
CONTINUOUS
 62
     7
 10
16.2134885447
 20
11.7406825753
 30
0.0
  0
VERTEX
  5
893
  8
0
  6
CONTINUOUS
 62
     7
 10
16.2107465097
 20
11.714662319
 30
0.0
  0
SEQEND
  5
88A
  8
0
  6
CONTINUOUS
 62
     7
  0
LINE
  5
4FA
  8
0
  6
CONTINUOUS
 62
     7
 10
16.1574004129
 20
11.7183116552
 30
0.0
 11
16.1382076601
 21
11.7291180138
 31
0.0
  0
LINE
  5
4FB
  8
0
  6
CONTINUOUS
 62
     7
 10
16.1380633366
 20
11.7290325888
 30
0.0
 11
16.1574022157
 21
11.7181439547
 31
0.0
  0
LINE
  5
4FC
  8
0
  6
CONTINUOUS
 62
     7
 10
16.1592087122
 20
11.3817738664
 30
0.0
 11
15.9282379466
 21
11.5118205012
 31
0.0
  0
LINE
  5
4FD
  8
0
  6
CONTINUOUS
 62
     7
 10
16.175551976
 20
11.6360390514
 30
0.0
 11
16.1563592232
 21
11.64684541
 31
0.0
  0
LINE
  5
4FE
  8
0
  6
CONTINUOUS
 62
     7
 10
16.1442872726
 20
11.2799253632
 30
0.0
 11
16.1040184118
 21
11.3025984917
 31
0.0
  0
LINE
  5
4FF
  8
0
  6
CONTINUOUS
 62
     7
 10
15.9678656866
 20
11.5352761475
 30
0.0
 11
16.1779064703
 21
11.4170140071
 31
0.0
  0
LINE
  5
500
  8
0
  6
CONTINUOUS
 62
     7
 10
16.1452808674
 20
11.1874969636
 30
0.0
 11
16.1050120066
 21
11.2101700921
 31
0.0
  0
POLYLINE
  5
501
  8
0
  6
CONTINUOUS
 62
     7
 66
     1
 10
0.0
 20
0.0
 30
0.0
  0
VERTEX
  5
895
  8
0
  6
CONTINUOUS
 62
     7
 10
16.5315107868
 20
11.4684506082
 30
0.0
  0
VERTEX
  5
896
  8
0
  6
CONTINUOUS
 62
     7
 10
16.5371515446
 20
11.5219779926
 30
0.0
  0
VERTEX
  5
897
  8
0
  6
CONTINUOUS
 62
     7
 10
16.5612463208
 20
11.5935981075
 30
0.0
  0
VERTEX
  5
898
  8
0
  6
CONTINUOUS
 62
     7
 10
16.5917477274
 20
11.6475008956
 30
0.0
  0
VERTEX
  5
899
  8
0
  6
CONTINUOUS
 62
     7
 10
16.6340385979
 20
11.6986929403
 30
0.0
  0
VERTEX
  5
89A
  8
0
  6
CONTINUOUS
 62
     7
 10
16.6840178198
 20
11.7379645485
 30
0.0
  0
VERTEX
  5
89B
  8
0
  6
CONTINUOUS
 62
     7
 10
16.7342040342
 20
11.7579808293
 30
0.0
  0
VERTEX
  5
89C
  8
0
  6
CONTINUOUS
 62
     7
 10
16.7770537847
 20
11.7571834901
 30
0.0
  0
VERTEX
  5
89D
  8
0
  6
CONTINUOUS
 62
     7
 10
16.7934383108
 20
11.7480960606
 30
0.0
  0
SEQEND
  5
894
  8
0
  6
CONTINUOUS
 62
     7
  0
ARC
  5
502
  8
0
  6
CONTINUOUS
 62
     7
 10
16.6243317994
 20
11.4536338526
 30
0.0
 40
0.0939961522273409
 50
170.9305526334
 51
240.7663527844
  0
LINE
  5
503
  8
0
  6
CONTINUOUS
 62
     7
 10
16.1462744622
 20
11.095068564
 30
0.0
 11
16.1060056014
 21
11.1177416925
 31
0.0
  0
LINE
  5
504
  8
0
  6
CONTINUOUS
 62
     7
 10
16.1472680571
 20
11.0026401644
 30
0.0
 11
16.1069991962
 21
11.0253132929
 31
0.0
  0
LINE
  5
505
  8
0
  6
CONTINUOUS
 62
     7
 10
16.147018718
 20
10.9094760727
 30
0.0
 11
16.1067498571
 21
10.9321492011
 31
0.0
  0
LINE
  5
506
  8
0
  6
CONTINUOUS
 62
     7
 10
16.1638518425
 20
11.3148441365
 30
0.0
 11
16.1437904752
 21
11.326139563
 31
0.0
  0
LINE
  5
507
  8
0
  6
CONTINUOUS
 62
     7
 10
16.1436461518
 20
11.3260541379
 30
0.0
 11
16.1638536453
 21
11.314676436
 31
0.0
  0
LINE
  5
508
  8
0
  6
CONTINUOUS
 62
     7
 10
16.1648454373
 20
11.2224157369
 30
0.0
 11
16.14478407
 21
11.2337111634
 31
0.0
  0
LINE
  5
509
  8
0
  6
CONTINUOUS
 62
     7
 10
16.1446397466
 20
11.2336257384
 30
0.0
 11
16.1648472401
 21
11.2222480364
 31
0.0
  0
LINE
  5
50A
  8
0
  6
CONTINUOUS
 62
     7
 10
16.1658390322
 20
11.1299873373
 30
0.0
 11
16.1457776648
 21
11.1412827638
 31
0.0
  0
LINE
  5
50B
  8
0
  6
CONTINUOUS
 62
     7
 10
16.1456333414
 20
11.1411973388
 30
0.0
 11
16.1658408349
 21
11.1298196368
 31
0.0
  0
POLYLINE
  5
50C
  8
0
  6
CONTINUOUS
 62
     7
 66
     1
 10
0.0
 20
0.0
 30
0.0
  0
VERTEX
  5
89F
  8
0
  6
CONTINUOUS
 62
     7
 10
16.2334864375
 20
10.9150421731
 30
0.0
  0
VERTEX
  5
8A0
  8
0
  6
CONTINUOUS
 62
     7
 10
16.2362284725
 20
10.9410624293
 30
0.0
  0
VERTEX
  5
8A1
  8
0
  6
CONTINUOUS
 62
     7
 10
16.247941211
 20
10.975877763
 30
0.0
  0
VERTEX
  5
8A2
  8
0
  6
CONTINUOUS
 62
     7
 10
16.2627682836
 20
11.0020805072
 30
0.0
  0
VERTEX
  5
8A3
  8
0
  6
CONTINUOUS
 62
     7
 10
16.2833263457
 20
11.0269655289
 30
0.0
  0
VERTEX
  5
8A4
  8
0
  6
CONTINUOUS
 62
     7
 10
16.3076218007
 20
11.046055894
 30
0.0
  0
VERTEX
  5
8A5
  8
0
  6
CONTINUOUS
 62
     7
 10
16.3320178772
 20
11.0557860305
 30
0.0
  0
VERTEX
  5
8A6
  8
0
  6
CONTINUOUS
 62
     7
 10
16.352847617
 20
11.0553984351
 30
0.0
  0
VERTEX
  5
8A7
  8
0
  6
CONTINUOUS
 62
     7
 10
16.3625695096
 20
11.0500063345
 30
0.0
  0
SEQEND
  5
89E
  8
0
  6
CONTINUOUS
 62
     7
  0
ARC
  5
50D
  8
0
  6
CONTINUOUS
 62
     7
 10
16.2788295593
 20
10.9079440802
 30
0.0
 40
0.0458953333089289
 50
171.1030223702
 51
241.754816783
  0
ARC
  5
50E
  8
0
  6
CONTINUOUS
 62
     7
 10
16.2644185861
 20
10.9158721429
 30
0.0
 40
0.0457299216338176
 50
170.9637977548
 51
240.966338795
  0
POLYLINE
  5
50F
  8
0
  6
CONTINUOUS
 62
     7
 66
     1
 10
0.0
 20
0.0
 30
0.0
  0
VERTEX
  5
8A9
  8
0
  6
CONTINUOUS
 62
     7
 10
16.3464198457
 20
11.0590831609
 30
0.0
  0
VERTEX
  5
8AA
  8
0
  6
CONTINUOUS
 62
     7
 10
16.3386173843
 20
11.063410678
 30
0.0
  0
VERTEX
  5
8AB
  8
0
  6
CONTINUOUS
 62
     7
 10
16.3177876445
 20
11.0637982734
 30
0.0
  0
VERTEX
  5
8AC
  8
0
  6
CONTINUOUS
 62
     7
 10
16.293391568
 20
11.0540681369
 30
0.0
  0
VERTEX
  5
8AD
  8
0
  6
CONTINUOUS
 62
     7
 10
16.269096113
 20
11.0349777718
 30
0.0
  0
VERTEX
  5
8AE
  8
0
  6
CONTINUOUS
 62
     7
 10
16.2485380509
 20
11.0100927501
 30
0.0
  0
VERTEX
  5
8AF
  8
0
  6
CONTINUOUS
 62
     7
 10
16.2337109783
 20
10.9838900059
 30
0.0
  0
VERTEX
  5
8B0
  8
0
  6
CONTINUOUS
 62
     7
 10
16.2219982398
 20
10.9490746722
 30
0.0
  0
VERTEX
  5
8B1
  8
0
  6
CONTINUOUS
 62
     7
 10
16.2192562048
 20
10.923054416
 30
0.0
  0
SEQEND
  5
8A8
  8
0
  6
CONTINUOUS
 62
     7
  0
LINE
  5
510
  8
0
  6
CONTINUOUS
 62
     7
 10
16.166832627
 20
11.0375589377
 30
0.0
 11
16.1467712596
 21
11.0488543642
 31
0.0
  0
LINE
  5
511
  8
0
  6
CONTINUOUS
 62
     7
 10
16.1466269362
 20
11.0487689392
 30
0.0
 11
16.1668344297
 21
11.0373912372
 31
0.0
  0
LINE
  5
512
  8
0
  6
CONTINUOUS
 62
     7
 10
16.1657146733
 20
10.9448839139
 30
0.0
 11
16.1465219206
 21
10.9556902724
 31
0.0
  0
LINE
  5
513
  8
0
  6
CONTINUOUS
 62
     7
 10
16.1463775971
 20
10.9556048474
 30
0.0
 11
16.1657164761
 21
10.9447162134
 31
0.0
  0
LINE
  5
514
  8
0
  6
CONTINUOUS
 62
     7
 10
16.172746282
 20
10.8662353652
 30
0.0
 11
16.1648941967
 21
10.8706564324
 31
0.0
  0
POLYLINE
  5
515
  8
0
  6
CONTINUOUS
 62
     7
 66
     1
 10
0.0
 20
0.0
 30
0.0
  0
VERTEX
  5
8B3
  8
0
  6
CONTINUOUS
 62
     7
 10
17.4380541314
 20
11.9434016428
 30
0.0
  0
VERTEX
  5
8B4
  8
0
  6
CONTINUOUS
 62
     7
 10
17.4431464822
 20
11.9917249759
 30
0.0
  0
VERTEX
  5
8B5
  8
0
  6
CONTINUOUS
 62
     7
 10
17.4648987108
 20
12.0563820242
 30
0.0
  0
VERTEX
  5
8B6
  8
0
  6
CONTINUOUS
 62
     7
 10
17.4924347028
 20
12.1050442634
 30
0.0
  0
VERTEX
  5
8B7
  8
0
  6
CONTINUOUS
 62
     7
 10
17.5306139609
 20
12.1512593038
 30
0.0
  0
VERTEX
  5
8B8
  8
0
  6
CONTINUOUS
 62
     7
 10
17.5757340918
 20
12.1867128389
 30
0.0
  0
VERTEX
  5
8B9
  8
0
  6
CONTINUOUS
 62
     7
 10
17.621041091
 20
12.2047830924
 30
0.0
  0
VERTEX
  5
8BA
  8
0
  6
CONTINUOUS
 62
     7
 10
17.6597248934
 20
12.2040632723
 30
0.0
  0
VERTEX
  5
8BB
  8
0
  6
CONTINUOUS
 62
     7
 10
17.6742151788
 20
12.1960264548
 30
0.0
  0
SEQEND
  5
8B2
  8
0
  6
CONTINUOUS
 62
     7
  0
ARC
  5
516
  8
0
  6
CONTINUOUS
 62
     7
 10
17.5225796369
 20
11.930356635
 30
0.0
 40
0.0855262140857665
 50
171.2266348316
 51
242.400459718
  0
POLYLINE
  5
517
  8
0
  6
CONTINUOUS
 62
     7
 66
     1
 10
0.0
 20
0.0
 30
0.0
  0
VERTEX
  5
8BD
  8
0
  6
CONTINUOUS
 62
     7
 10
17.9442141953
 20
12.2429976185
 30
0.0
  0
VERTEX
  5
8BE
  8
0
  6
CONTINUOUS
 62
     7
 10
17.9493065461
 20
12.2913209516
 30
0.0
  0
VERTEX
  5
8BF
  8
0
  6
CONTINUOUS
 62
     7
 10
17.9710587746
 20
12.3559779999
 30
0.0
  0
VERTEX
  5
8C0
  8
0
  6
CONTINUOUS
 62
     7
 10
17.9985947667
 20
12.4046402391
 30
0.0
  0
VERTEX
  5
8C1
  8
0
  6
CONTINUOUS
 62
     7
 10
18.0367740248
 20
12.4508552795
 30
0.0
  0
VERTEX
  5
8C2
  8
0
  6
CONTINUOUS
 62
     7
 10
18.0818941556
 20
12.4863088146
 30
0.0
  0
VERTEX
  5
8C3
  8
0
  6
CONTINUOUS
 62
     7
 10
18.1272011548
 20
12.5043790681
 30
0.0
  0
VERTEX
  5
8C4
  8
0
  6
CONTINUOUS
 62
     7
 10
18.1658849573
 20
12.503659248
 30
0.0
  0
VERTEX
  5
8C5
  8
0
  6
CONTINUOUS
 62
     7
 10
18.1803752427
 20
12.4956224305
 30
0.0
  0
SEQEND
  5
8BC
  8
0
  6
CONTINUOUS
 62
     7
  0
ARC
  5
518
  8
0
  6
CONTINUOUS
 62
     7
 10
18.0287397007
 20
12.2299526107
 30
0.0
 40
0.0855262140857579
 50
171.2266348316
 51
242.400459718
  0
LINE
  5
519
  8
0
  6
CONTINUOUS
 62
     7
 10
18.4638741861
 20
13.203274179
 30
0.0
 11
15.6599575325
 21
14.7820017909
 31
0.0
  0
POLYLINE
  5
51A
  8
0
  6
CONTINUOUS
 62
     7
 66
     1
 10
0.0
 20
0.0
 30
0.0
  0
VERTEX
  5
8C7
  8
0
  6
CONTINUOUS
 62
     7
 10
18.4126176963
 20
13.0015140388
 30
0.0
  0
VERTEX
  5
8C8
  8
0
  6
CONTINUOUS
 62
     7
 10
18.4153597313
 20
13.0275342951
 30
0.0
  0
VERTEX
  5
8C9
  8
0
  6
CONTINUOUS
 62
     7
 10
18.4270724698
 20
13.0623496288
 30
0.0
  0
VERTEX
  5
8CA
  8
0
  6
CONTINUOUS
 62
     7
 10
18.4418995424
 20
13.088552373
 30
0.0
  0
VERTEX
  5
8CB
  8
0
  6
CONTINUOUS
 62
     7
 10
18.4624576045
 20
13.1134373947
 30
0.0
  0
VERTEX
  5
8CC
  8
0
  6
CONTINUOUS
 62
     7
 10
18.4867530596
 20
13.1325277598
 30
0.0
  0
VERTEX
  5
8CD
  8
0
  6
CONTINUOUS
 62
     7
 10
18.511149136
 20
13.1422578963
 30
0.0
  0
VERTEX
  5
8CE
  8
0
  6
CONTINUOUS
 62
     7
 10
18.5319788758
 20
13.1418703008
 30
0.0
  0
VERTEX
  5
8CF
  8
0
  6
CONTINUOUS
 62
     7
 10
18.5417007684
 20
13.1364782002
 30
0.0
  0
SEQEND
  5
8C6
  8
0
  6
CONTINUOUS
 62
     7
  0
ARC
  5
51B
  8
0
  6
CONTINUOUS
 62
     7
 10
18.4579608181
 20
12.9944159459
 30
0.0
 40
0.0458953333089583
 50
171.1030223702
 51
241.754816783
  0
POLYLINE
  5
51C
  8
0
  6
CONTINUOUS
 62
     7
 66
     1
 10
0.0
 20
0.0
 30
0.0
  0
VERTEX
  5
8D1
  8
0
  6
CONTINUOUS
 62
     7
 10
18.5255511045
 20
13.1455550266
 30
0.0
  0
VERTEX
  5
8D2
  8
0
  6
CONTINUOUS
 62
     7
 10
18.5177486431
 20
13.1498825437
 30
0.0
  0
VERTEX
  5
8D3
  8
0
  6
CONTINUOUS
 62
     7
 10
18.4969189033
 20
13.1502701392
 30
0.0
  0
VERTEX
  5
8D4
  8
0
  6
CONTINUOUS
 62
     7
 10
18.4725228268
 20
13.1405400027
 30
0.0
  0
VERTEX
  5
8D5
  8
0
  6
CONTINUOUS
 62
     7
 10
18.4482273718
 20
13.1214496376
 30
0.0
  0
VERTEX
  5
8D6
  8
0
  6
CONTINUOUS
 62
     7
 10
18.4276693097
 20
13.0965646159
 30
0.0
  0
VERTEX
  5
8D7
  8
0
  6
CONTINUOUS
 62
     7
 10
18.4128422371
 20
13.0703618717
 30
0.0
  0
VERTEX
  5
8D8
  8
0
  6
CONTINUOUS
 62
     7
 10
18.4011294986
 20
13.035546538
 30
0.0
  0
VERTEX
  5
8D9
  8
0
  6
CONTINUOUS
 62
     7
 10
18.3983874636
 20
13.0095262817
 30
0.0
  0
SEQEND
  5
8D0
  8
0
  6
CONTINUOUS
 62
     7
  0
LINE
  5
51D
  8
0
  6
CONTINUOUS
 62
     7
 10
18.8706668248
 20
13.2999514427
 30
0.0
 11
18.830397964
 21
13.3226245712
 31
0.0
  0
LINE
  5
51E
  8
0
  6
CONTINUOUS
 62
     7
 10
18.8126802683
 20
12.9523628097
 30
0.0
 11
18.5817095027
 21
13.0824094445
 31
0.0
  0
LINE
  5
51F
  8
0
  6
CONTINUOUS
 62
     7
 10
13.326981851
 20
13.380085399
 30
0.0
 11
13.3480447969
 21
13.36822604
 31
0.0
  0
LINE
  5
520
  8
0
  6
CONTINUOUS
 62
     7
 10
18.5216671208
 20
12.6991113723
 30
0.0
 11
18.5320707973
 21
12.6932536478
 31
0.0
  0
POLYLINE
  5
521
  8
0
  6
CONTINUOUS
 62
     7
 66
     1
 10
0.0
 20
0.0
 30
0.0
  0
VERTEX
  5
8DB
  8
0
  6
CONTINUOUS
 62
     7
 10
18.4211273914
 20
12.2099061358
 30
0.0
  0
VERTEX
  5
8DC
  8
0
  6
CONTINUOUS
 62
     7
 10
18.4238694264
 20
12.2359263921
 30
0.0
  0
VERTEX
  5
8DD
  8
0
  6
CONTINUOUS
 62
     7
 10
18.4355821649
 20
12.2707417258
 30
0.0
  0
VERTEX
  5
8DE
  8
0
  6
CONTINUOUS
 62
     7
 10
18.4504092375
 20
12.2969444699
 30
0.0
  0
VERTEX
  5
8DF
  8
0
  6
CONTINUOUS
 62
     7
 10
18.4709672996
 20
12.3218294917
 30
0.0
  0
VERTEX
  5
8E0
  8
0
  6
CONTINUOUS
 62
     7
 10
18.4952627547
 20
12.3409198568
 30
0.0
  0
VERTEX
  5
8E1
  8
0
  6
CONTINUOUS
 62
     7
 10
18.5196588311
 20
12.3506499933
 30
0.0
  0
VERTEX
  5
8E2
  8
0
  6
CONTINUOUS
 62
     7
 10
18.5404885709
 20
12.3502623978
 30
0.0
  0
VERTEX
  5
8E3
  8
0
  6
CONTINUOUS
 62
     7
 10
18.5502104635
 20
12.3448702972
 30
0.0
  0
SEQEND
  5
8DA
  8
0
  6
CONTINUOUS
 62
     7
  0
ARC
  5
522
  8
0
  6
CONTINUOUS
 62
     7
 10
18.4664705132
 20
12.2028080429
 30
0.0
 40
0.0458953333089386
 50
171.1030223702
 51
241.754816783
  0
ARC
  5
523
  8
0
  6
CONTINUOUS
 62
     7
 10
13.4538557586
 20
13.3499818338
 30
0.0
 40
0.140442369432598
 50
103.5221490936
 51
181.6430495225
  0
POLYLINE
  5
524
  8
0
  6
CONTINUOUS
 62
     7
 66
     1
 10
0.0
 20
0.0
 30
0.0
  0
VERTEX
  5
8E5
  8
0
  6
CONTINUOUS
 62
     7
 10
18.5340607996
 20
12.3539471236
 30
0.0
  0
VERTEX
  5
8E6
  8
0
  6
CONTINUOUS
 62
     7
 10
18.5262583382
 20
12.3582746407
 30
0.0
  0
VERTEX
  5
8E7
  8
0
  6
CONTINUOUS
 62
     7
 10
18.5054285984
 20
12.3586622361
 30
0.0
  0
VERTEX
  5
8E8
  8
0
  6
CONTINUOUS
 62
     7
 10
18.481032522
 20
12.3489320997
 30
0.0
  0
VERTEX
  5
8E9
  8
0
  6
CONTINUOUS
 62
     7
 10
18.4567370669
 20
12.3298417346
 30
0.0
  0
VERTEX
  5
8EA
  8
0
  6
CONTINUOUS
 62
     7
 10
18.4361790048
 20
12.3049567128
 30
0.0
  0
VERTEX
  5
8EB
  8
0
  6
CONTINUOUS
 62
     7
 10
18.4213519322
 20
12.2787539687
 30
0.0
  0
VERTEX
  5
8EC
  8
0
  6
CONTINUOUS
 62
     7
 10
18.4096391937
 20
12.243938635
 30
0.0
  0
VERTEX
  5
8ED
  8
0
  6
CONTINUOUS
 62
     7
 10
18.4068971587
 20
12.2179183787
 30
0.0
  0
SEQEND
  5
8E4
  8
0
  6
CONTINUOUS
 62
     7
  0
POLYLINE
  5
525
  8
0
  6
CONTINUOUS
 62
     7
 66
     1
 10
0.0
 20
0.0
 30
0.0
  0
VERTEX
  5
8EF
  8
0
  6
CONTINUOUS
 62
     7
 10
13.3018308876
 20
13.336136552
 30
0.0
  0
VERTEX
  5
8F0
  8
0
  6
CONTINUOUS
 62
     7
 10
13.2992408988
 20
13.3539672157
 30
0.0
  0
VERTEX
  5
8F1
  8
0
  6
CONTINUOUS
 62
     7
 10
13.3019829339
 20
13.379987472
 30
0.0
  0
VERTEX
  5
8F2
  8
0
  6
CONTINUOUS
 62
     7
 10
13.3136956723
 20
13.4148028056
 30
0.0
  0
VERTEX
  5
8F3
  8
0
  6
CONTINUOUS
 62
     7
 10
13.328522745
 20
13.4410055498
 30
0.0
  0
VERTEX
  5
8F4
  8
0
  6
CONTINUOUS
 62
     7
 10
13.349080807
 20
13.4658905715
 30
0.0
  0
VERTEX
  5
8F5
  8
0
  6
CONTINUOUS
 62
     7
 10
13.3733762621
 20
13.4849809366
 30
0.0
  0
VERTEX
  5
8F6
  8
0
  6
CONTINUOUS
 62
     7
 10
13.3977723386
 20
13.4947110731
 30
0.0
  0
VERTEX
  5
8F7
  8
0
  6
CONTINUOUS
 62
     7
 10
13.4186020784
 20
13.4943234777
 30
0.0
  0
VERTEX
  5
8F8
  8
0
  6
CONTINUOUS
 62
     7
 10
13.4264045397
 20
13.4899959606
 30
0.0
  0
SEQEND
  5
8EE
  8
0
  6
CONTINUOUS
 62
     7
  0
LINE
  5
526
  8
0
  6
CONTINUOUS
 62
     7
 10
18.8136738631
 20
12.8599344101
 30
0.0
 11
18.7734050022
 21
12.8826075386
 31
0.0
  0
LINE
  5
527
  8
0
  6
CONTINUOUS
 62
     7
 10
18.5226607156
 20
12.6066829728
 30
0.0
 11
18.5330643921
 21
12.6008252483
 31
0.0
  0
LINE
  5
528
  8
0
  6
CONTINUOUS
 62
     7
 10
18.8227233849
 20
12.7722743111
 30
0.0
 11
18.782454524
 21
12.7949474395
 31
0.0
  0
LINE
  5
529
  8
0
  6
CONTINUOUS
 62
     7
 10
18.5236543104
 20
12.5142545732
 30
0.0
 11
18.5340579869
 21
12.5083968487
 31
0.0
  0
LINE
  5
52A
  8
0
  6
CONTINUOUS
 62
     7
 10
18.8400832853
 20
12.6895331224
 30
0.0
 11
18.7998144245
 21
12.7122062509
 31
0.0
  0
LINE
  5
52B
  8
0
  6
CONTINUOUS
 62
     7
 10
18.5246479052
 20
12.4218261736
 30
0.0
 11
18.5350515817
 21
12.4159684491
 31
0.0
  0
LINE
  5
52C
  8
0
  6
CONTINUOUS
 62
     7
 10
18.8663049041
 20
12.612037182
 30
0.0
 11
18.8260360433
 21
12.6347103104
 31
0.0
  0
LINE
  5
52D
  8
0
  6
CONTINUOUS
 62
     7
 10
18.9023392654
 20
12.5403494005
 30
0.0
 11
18.8620704046
 21
12.563022529
 31
0.0
  0
ARC
  5
52E
  8
0
  6
CONTINUOUS
 62
     7
 10
15.6127468181
 20
14.6985138047
 30
0.0
 40
0.0829820246556039
 50
92.8240996464
 51
148.4184522249
  0
POLYLINE
  5
52F
  8
0
  6
CONTINUOUS
 62
     7
 66
     1
 10
0.0
 20
0.0
 30
0.0
  0
VERTEX
  5
8FA
  8
0
  6
CONTINUOUS
 62
     7
 10
15.5083173553
 20
14.7220032735
 30
0.0
  0
VERTEX
  5
8FB
  8
0
  6
CONTINUOUS
 62
     7
 10
15.5161636989
 20
14.7358695126
 30
0.0
  0
VERTEX
  5
8FC
  8
0
  6
CONTINUOUS
 62
     7
 10
15.5367217609
 20
14.7607545343
 30
0.0
  0
VERTEX
  5
8FD
  8
0
  6
CONTINUOUS
 62
     7
 10
15.561017216
 20
14.7798448994
 30
0.0
  0
VERTEX
  5
8FE
  8
0
  6
CONTINUOUS
 62
     7
 10
15.5854132925
 20
14.7895750359
 30
0.0
  0
VERTEX
  5
8FF
  8
0
  6
CONTINUOUS
 62
     7
 10
15.6062430323
 20
14.7891874404
 30
0.0
  0
VERTEX
  5
900
  8
0
  6
CONTINUOUS
 62
     7
 10
15.6140454937
 20
14.7848599233
 30
0.0
  0
SEQEND
  5
8F9
  8
0
  6
CONTINUOUS
 62
     7
  0
LINE
  5
530
  8
0
  6
CONTINUOUS
 62
     7
 10
18.3919270426
 20
4.6419716293
 30
0.0
 11
18.3919270426
 21
8.5819716293
 31
0.0
  0
LINE
  5
531
  8
0
  6
CONTINUOUS
 62
     7
 10
18.0923336349
 20
5.4919716293
 30
0.0
 11
18.0923336349
 21
5.9869716293
 31
0.0
  0
LINE
  5
532
  8
0
  6
CONTINUOUS
 62
     7
 10
18.0923336349
 20
8.3319716293
 30
0.0
 11
18.0923336349
 21
8.5819716293
 31
0.0
  0
LINE
  5
533
  8
0
  6
CONTINUOUS
 62
     7
 10
18.0923336349
 20
7.2369716293
 30
0.0
 11
18.0923336349
 21
7.7319716293
 31
0.0
  0
LINE
  5
534
  8
0
  6
CONTINUOUS
 62
     7
 10
18.0923336349
 20
4.6419716293
 30
0.0
 11
18.0923336349
 21
4.8919716293
 31
0.0
  0
LINE
  5
535
  8
0
  6
CONTINUOUS
 62
     7
 10
18.3478428957
 20
8.5819716293
 30
0.0
 11
18.3478428957
 21
4.6419716293
 31
0.0
  0
LINE
  5
536
  8
0
  6
CONTINUOUS
 62
     7
 10
18.3478428957
 20
8.5819716293
 30
0.0
 11
18.3919270426
 21
8.5819716293
 31
0.0
  0
LINE
  5
537
  8
0
  6
CONTINUOUS
 62
     7
 10
18.3478428957
 20
4.6419716293
 30
0.0
 11
18.3919270426
 21
4.6419716293
 31
0.0
  0
LINE
  5
538
  8
0
  6
CONTINUOUS
 62
     7
 10
18.2229776335
 20
4.9419716293
 30
0.0
 11
18.2229776335
 21
4.6419716293
 31
0.0
  0
LINE
  5
539
  8
0
  6
CONTINUOUS
 62
     7
 10
18.2229776335
 20
5.4419716293
 30
0.0
 11
18.2229776335
 21
4.9419716293
 31
0.0
  0
LINE
  5
53A
  8
0
  6
CONTINUOUS
 62
     7
 10
18.2229776335
 20
6.0369716293
 30
0.0
 11
18.2229776335
 21
5.4419716293
 31
0.0
  0
LINE
  5
53B
  8
0
  6
CONTINUOUS
 62
     7
 10
18.2229776335
 20
6.0369716293
 30
0.0
 11
18.2229776335
 21
7.1869716293
 31
0.0
  0
LINE
  5
53C
  8
0
  6
CONTINUOUS
 62
     7
 10
18.2229776335
 20
7.7819716293
 30
0.0
 11
18.2229776335
 21
7.1869716293
 31
0.0
  0
LINE
  5
53D
  8
0
  6
CONTINUOUS
 62
     7
 10
18.2229776335
 20
8.2819716293
 30
0.0
 11
18.2229776335
 21
7.7819716293
 31
0.0
  0
LINE
  5
53E
  8
0
  6
CONTINUOUS
 62
     7
 10
18.2229776335
 20
8.5819716293
 30
0.0
 11
18.2229776335
 21
8.2819716293
 31
0.0
  0
LINE
  5
53F
  8
0
  6
CONTINUOUS
 62
     7
 10
18.2229776335
 20
8.5819716293
 30
0.0
 11
18.3478428957
 21
8.5819716293
 31
0.0
  0
LINE
  5
540
  8
0
  6
CONTINUOUS
 62
     7
 10
18.2229776335
 20
4.6419716293
 30
0.0
 11
18.3478428957
 21
4.6419716293
 31
0.0
  0
LINE
  5
541
  8
0
  6
CONTINUOUS
 62
     7
 10
18.0403336349
 20
5.4919716293
 30
0.0
 11
18.0923336349
 21
5.4919716293
 31
0.0
  0
LINE
  5
542
  8
0
  6
CONTINUOUS
 62
     7
 10
18.0403336349
 20
5.9869716293
 30
0.0
 11
18.0403336349
 21
5.4919716293
 31
0.0
  0
LINE
  5
543
  8
0
  6
CONTINUOUS
 62
     7
 10
18.0403336349
 20
5.9869716293
 30
0.0
 11
18.0923336349
 21
5.9869716293
 31
0.0
  0
LINE
  5
544
  8
0
  6
CONTINUOUS
 62
     7
 10
18.0403336349
 20
8.3319716293
 30
0.0
 11
18.0923336349
 21
8.3319716293
 31
0.0
  0
LINE
  5
545
  8
0
  6
CONTINUOUS
 62
     7
 10
18.0403336349
 20
8.5819716293
 30
0.0
 11
18.0403336349
 21
8.3319716293
 31
0.0
  0
LINE
  5
546
  8
0
  6
CONTINUOUS
 62
     7
 10
18.0403336349
 20
8.5819716293
 30
0.0
 11
18.0923336349
 21
8.5819716293
 31
0.0
  0
LINE
  5
547
  8
0
  6
CONTINUOUS
 62
     7
 10
18.0403336349
 20
7.7319716293
 30
0.0
 11
18.0403336349
 21
7.2369716293
 31
0.0
  0
LINE
  5
548
  8
0
  6
CONTINUOUS
 62
     7
 10
18.0923336349
 20
7.7319716293
 30
0.0
 11
18.0403336349
 21
7.7319716293
 31
0.0
  0
LINE
  5
549
  8
0
  6
CONTINUOUS
 62
     7
 10
18.0923336349
 20
7.2369716293
 30
0.0
 11
18.0403336349
 21
7.2369716293
 31
0.0
  0
LINE
  5
54A
  8
0
  6
CONTINUOUS
 62
     7
 10
18.0403336349
 20
4.8919716293
 30
0.0
 11
18.0403336349
 21
4.6419716293
 31
0.0
  0
LINE
  5
54B
  8
0
  6
CONTINUOUS
 62
     7
 10
18.0923336349
 20
4.8919716293
 30
0.0
 11
18.0403336349
 21
4.8919716293
 31
0.0
  0
LINE
  5
54C
  8
0
  6
CONTINUOUS
 62
     7
 10
18.0403336349
 20
4.6419716293
 30
0.0
 11
18.0923336349
 21
4.6419716293
 31
0.0
  0
LINE
  5
54D
  8
0
  6
CONTINUOUS
 62
     7
 10
18.1473336349
 20
7.7319716293
 30
0.0
 11
18.1473336349
 21
7.2369716293
 31
0.0
  0
LINE
  5
54E
  8
0
  6
CONTINUOUS
 62
     7
 10
18.1473336349
 20
7.7319716293
 30
0.0
 11
18.0923336349
 21
7.7319716293
 31
0.0
  0
LINE
  5
54F
  8
0
  6
CONTINUOUS
 62
     7
 10
18.1473336349
 20
7.2369716293
 30
0.0
 11
18.0923336349
 21
7.2369716293
 31
0.0
  0
LINE
  5
550
  8
0
  6
CONTINUOUS
 62
     7
 10
18.1473336349
 20
5.9869716293
 30
0.0
 11
18.1473336349
 21
5.4919716293
 31
0.0
  0
LINE
  5
551
  8
0
  6
CONTINUOUS
 62
     7
 10
18.0923336349
 20
5.9869716293
 30
0.0
 11
18.1473336349
 21
5.9869716293
 31
0.0
  0
LINE
  5
552
  8
0
  6
CONTINUOUS
 62
     7
 10
18.0923336349
 20
5.4919716293
 30
0.0
 11
18.1473336349
 21
5.4919716293
 31
0.0
  0
LINE
  5
553
  8
0
  6
CONTINUOUS
 62
     7
 10
18.1473336349
 20
4.8919716293
 30
0.0
 11
18.1473336349
 21
4.6419716293
 31
0.0
  0
LINE
  5
554
  8
0
  6
CONTINUOUS
 62
     7
 10
18.1473336349
 20
4.8919716293
 30
0.0
 11
18.0923336349
 21
4.8919716293
 31
0.0
  0
LINE
  5
555
  8
0
  6
CONTINUOUS
 62
     7
 10
18.0923336349
 20
4.6419716293
 30
0.0
 11
18.1473336349
 21
4.6419716293
 31
0.0
  0
LINE
  5
556
  8
0
  6
CONTINUOUS
 62
     7
 10
18.1473336349
 20
8.5819716293
 30
0.0
 11
18.1473336349
 21
8.3319716293
 31
0.0
  0
LINE
  5
557
  8
0
  6
CONTINUOUS
 62
     7
 10
18.0923336349
 20
8.3319716293
 30
0.0
 11
18.1473336349
 21
8.3319716293
 31
0.0
  0
LINE
  5
558
  8
0
  6
CONTINUOUS
 62
     7
 10
18.0923336349
 20
8.5819716293
 30
0.0
 11
18.1473336349
 21
8.5819716293
 31
0.0
  0
LINE
  5
559
  8
0
  6
CONTINUOUS
 62
     7
 10
18.2059656025
 20
4.9043977833
 30
0.0
 11
18.2059656025
 21
4.6419716293
 31
0.0
  0
ARC
  5
55A
  8
0
  6
CONTINUOUS
 62
     7
 10
18.1729776335
 20
4.9419716293
 30
0.0
 40
0.0500000000000185
 50
311.2815243856
 51
360.0
  0
LINE
  5
55B
  8
0
  6
CONTINUOUS
 62
     7
 10
18.2059656025
 20
4.6419716293
 30
0.0
 11
18.2229776335
 21
4.6419716293
 31
0.0
  0
ARC
  5
55C
  8
0
  6
CONTINUOUS
 62
     7
 10
18.1729776335
 20
5.4419716293
 30
0.0
 40
0.0500000000000114
 50
0.0
 51
48.7184756144
  0
LINE
  5
55D
  8
0
  6
CONTINUOUS
 62
     7
 10
18.2059656025
 20
5.9993977833
 30
0.0
 11
18.2059656025
 21
5.4795454752
 31
0.0
  0
ARC
  5
55E
  8
0
  6
CONTINUOUS
 62
     7
 10
18.1729776335
 20
6.0369716293
 30
0.0
 40
0.0500000000000078
 50
311.2815243856
 51
360.0
  0
ARC
  5
55F
  8
0
  6
CONTINUOUS
 62
     7
 10
18.1729776335
 20
7.1869716293
 30
0.0
 40
0.0500000000000086
 50
0.0
 51
48.7184756145
  0
LINE
  5
560
  8
0
  6
CONTINUOUS
 62
     7
 10
18.2059656025
 20
7.7443977833
 30
0.0
 11
18.2059656025
 21
7.2245454752
 31
0.0
  0
ARC
  5
561
  8
0
  6
CONTINUOUS
 62
     7
 10
18.1729776335
 20
7.7819716293
 30
0.0
 40
0.0500000000000078
 50
311.2815243856
 51
360.0
  0
LINE
  5
562
  8
0
  6
CONTINUOUS
 62
     7
 10
18.2059656025
 20
8.5819716293
 30
0.0
 11
18.2059656025
 21
8.3195454752
 31
0.0
  0
ARC
  5
563
  8
0
  6
CONTINUOUS
 62
     7
 10
18.1729776335
 20
8.2819716293
 30
0.0
 40
0.0500000000000185
 50
0.0
 51
48.7184756144
  0
LINE
  5
564
  8
0
  6
CONTINUOUS
 62
     7
 10
18.2059656025
 20
8.5819716293
 30
0.0
 11
18.2229776335
 21
8.5819716293
 31
0.0
  0
ARC
  5
565
  8
0
  6
CONTINUOUS
 62
     7
 10
18.1729776335
 20
4.9419716293
 30
0.0
 40
0.0499999999999999
 50
270.0
 51
311.2815243855
  0
LINE
  5
566
  8
0
  6
CONTINUOUS
 62
     7
 10
18.1729776335
 20
4.8919716293
 30
0.0
 11
18.1473336349
 21
4.8919716293
 31
0.0
  0
LINE
  5
567
  8
0
  6
CONTINUOUS
 62
     7
 10
18.1473336349
 20
4.6419716293
 30
0.0
 11
18.2059656025
 21
4.6419716293
 31
0.0
  0
ARC
  5
568
  8
0
  6
CONTINUOUS
 62
     7
 10
18.1729776335
 20
7.1869716293
 30
0.0
 40
0.0500000000000006
 50
48.7184756145
 51
90.0
  0
ARC
  5
569
  8
0
  6
CONTINUOUS
 62
     7
 10
18.1729776335
 20
7.7819716293
 30
0.0
 40
0.0500000000000007
 50
270.0
 51
311.2815243855
  0
LINE
  5
56A
  8
0
  6
CONTINUOUS
 62
     7
 10
18.1729776335
 20
7.7319716293
 30
0.0
 11
18.1473336349
 21
7.7319716293
 31
0.0
  0
LINE
  5
56B
  8
0
  6
CONTINUOUS
 62
     7
 10
18.1729776335
 20
7.2369716293
 30
0.0
 11
18.1473336349
 21
7.2369716293
 31
0.0
  0
ARC
  5
56C
  8
0
  6
CONTINUOUS
 62
     7
 10
18.1729776335
 20
5.4419716293
 30
0.0
 40
0.0500000000000006
 50
48.7184756145
 51
90.0
  0
ARC
  5
56D
  8
0
  6
CONTINUOUS
 62
     7
 10
18.1729776335
 20
6.0369716293
 30
0.0
 40
0.0500000000000012
 50
270.0
 51
311.2815243855
  0
LINE
  5
56E
  8
0
  6
CONTINUOUS
 62
     7
 10
18.1473336349
 20
5.9869716293
 30
0.0
 11
18.1729776335
 21
5.9869716293
 31
0.0
  0
LINE
  5
56F
  8
0
  6
CONTINUOUS
 62
     7
 10
18.1473336349
 20
5.4919716293
 30
0.0
 11
18.1729776335
 21
5.4919716293
 31
0.0
  0
ARC
  5
570
  8
0
  6
CONTINUOUS
 62
     7
 10
18.1729776335
 20
8.2819716293
 30
0.0
 40
0.0500000000000006
 50
48.7184756145
 51
90.0
  0
LINE
  5
571
  8
0
  6
CONTINUOUS
 62
     7
 10
18.1473336349
 20
8.3319716293
 30
0.0
 11
18.1729776335
 21
8.3319716293
 31
0.0
  0
LINE
  5
572
  8
0
  6
CONTINUOUS
 62
     7
 10
18.1473336349
 20
8.5819716293
 30
0.0
 11
18.2059656025
 21
8.5819716293
 31
0.0
  0
DIMENSION
  5
573
  8
0
  6
CONTINUOUS
 62
     7
  2
*D10
 10
19.3494118363
 20
8.5819716293
 30
0.0
 11
19.3494118363
 21
6.639964275
 31
0.0
 70
   160
  3
SLDDIMSTYLE0
 13
18.3919270426
 23
4.6419716293
 33
0.0
 14
18.3919270426
 24
8.5819716293
 34
0.0
 50
90.0
  0
DIMENSION
  5
57E
  8
0
  6
CONTINUOUS
 62
     7
  2
*D11
 10
17.543742364
 20
7.7319716293
 30
0.0
 11
17.543742364
 21
8.0442719024
 31
0.0
 70
   160
  3
SLDDIMSTYLE5
 13
18.0403336349
 23
8.3319716293
 33
0.0
 14
18.0403336349
 24
7.7319716293
 34
0.0
 50
90.0
  0
DIMENSION
  5
58C
  8
0
  6
CONTINUOUS
 62
     7
  2
*D12
 10
16.8028386682
 20
5.9869716293
 30
0.0
 11
16.8028386682
 21
6.639964275
 31
0.0
 70
   160
  3
SLDDIMSTYLE4
 13
18.0403336349
 23
7.2369716293
 33
0.0
 14
18.0403336349
 24
5.9869716293
 34
0.0
 50
90.0
  0
ARC
  5
599
  8
0
  6
CONTINUOUS
 62
     7
 10
13.740060216
 20
5.2198417869
 30
0.0
 40
1.555640090543233
 50
265.3911563976
 51
274.6088436024
  0
ARC
  5
59A
  8
0
  6
CONTINUOUS
 62
     7
 10
13.988560216
 20
3.6482016964
 30
0.0
 40
0.0259999999999998
 50
246.09624974
 51
90.0
  0
ARC
  5
59B
  8
0
  6
CONTINUOUS
 62
     7
 10
13.9526596136
 20
3.5672016964
 30
0.0
 40
0.0625993975903617
 50
66.09624974
 51
180.0
  0
ARC
  5
59C
  8
0
  6
CONTINUOUS
 62
     7
 10
13.491560216
 20
3.6482016964
 30
0.0
 40
0.0260000000000004
 50
90.0
 51
293.9037502601
  0
ARC
  5
59D
  8
0
  6
CONTINUOUS
 62
     7
 10
13.491560216
 20
2.1372292869
 30
0.0
 40
1.536972409456714
 50
85.3911563976
 51
90.0
  0
ARC
  5
59E
  8
0
  6
CONTINUOUS
 62
     7
 10
13.988560216
 20
2.1372292869
 30
0.0
 40
1.536972409456714
 50
90.0
 51
94.6088436024
  0
LINE
  5
59F
  8
0
  6
CONTINUOUS
 62
     7
 10
13.590060216
 20
3.5672016964
 30
0.0
 11
13.590060216
 21
3.5085697288
 31
0.0
  0
ARC
  5
5A0
  8
0
  6
CONTINUOUS
 62
     7
 10
13.5274608184
 20
3.5672016964
 30
0.0
 40
0.0625993975903605
 50
0.0
 51
113.9037502601
  0
ARC
  5
5A1
  8
0
  6
CONTINUOUS
 62
     7
 10
13.990060216
 20
3.3526082887
 30
0.0
 40
0.0300000000000024
 50
220.7490543775
 51
28.0
  0
ARC
  5
5A2
  8
0
  6
CONTINUOUS
 62
     7
 10
13.740060216
 20
3.1372016964
 30
0.0
 40
0.2999999999999997
 50
40.7490543775
 51
139.2509456225
  0
ARC
  5
5A3
  8
0
  6
CONTINUOUS
 62
     7
 10
13.490060216
 20
3.3526082887
 30
0.0
 40
0.0300000000000005
 50
152.0
 51
319.2509456225
  0
ARC
  5
5A4
  8
0
  6
CONTINUOUS
 62
     7
 10
13.7528418195
 20
3.2128848316
 30
0.0
 40
0.3276185739887473
 50
121.7228425455
 51
152.0
  0
LINE
  5
5A5
  8
0
  6
CONTINUOUS
 62
     7
 10
13.890060216
 20
3.5085697288
 30
0.0
 11
13.890060216
 21
3.5672016964
 31
0.0
  0
ARC
  5
5A6
  8
0
  6
CONTINUOUS
 62
     7
 10
13.910060216
 20
3.5085697288
 30
0.0
 40
0.0200000000000014
 50
180.0
 51
238.2771574545
  0
ARC
  5
5A7
  8
0
  6
CONTINUOUS
 62
     7
 10
13.570060216
 20
3.5085697288
 30
0.0
 40
0.0200000000000004
 50
301.7228425455
 51
0.0
  0
ARC
  5
5A8
  8
0
  6
CONTINUOUS
 62
     7
 10
13.7272786125
 20
3.2128848316
 30
0.0
 40
0.3276185739887477
 50
28.0
 51
58.2771574545
  0
DIMENSION
  5
5A9
  8
0
  6
CONTINUOUS
 62
     7
  2
*D13
 10
13.740060216
 20
3.1372016964
 30
0.0
 11
12.484522507
 21
4.2884820117
 31
0.0
 70
   164
  1
<>
  3
SLDDIMSTYLE6
 15
13.5902118581
 25
3.3970968092
 35
0.0
 40
0.0
  0
ENDSEC
  0
EOF
